Я видел как мыши кота хоронили / I saw mice burying a cat (Дмитрий Геллер) [2011, анимационный фильм, DVDRip]

 
Автор Сообщение

TorrentFilm ®

Пол:

Стаж: 2 года

Сообщений: 7741



Награды: Нет

Торрент-статистика

Создавать темы 19-Дек-2014 02:00

[Цитировать]

Я видел, как мыши кота хоронили / I saw mice burying a cat
Страна: Китай, Россия
Жанр: анимационный фильм
Продолжительность: 00:05:31
Год выпуска: 2011
Перевод: Не требуется
Русские субтитры: нет
Режиссёр: Дмитрий Геллер
Описание: Классическая сказка о том, как мыши кота хоронили, поставленная Дмитрием Геллером в Китае.
Доп. информация: Гран-При. "ХИРОСИМА" Япония. 2012
Лучший короткометражный фильм года. Национальная премия Китайской Анимационной Ассоциации "ЗОЛОТАЯ ОБЕЗЬЯНА" Китай 2011
Специальный Приз Жюри. РКФ «Суздаль» 2012
Специальный Приз Жюри. РКФ «Окно в Европу» 2012
Качество: DVDRip
Формат: AVI
Видео: DIVX, 720x416, 25fps, 1095kbps
Аудио: МР3, 48.0kHz, 2ch, 192kbps
Субтитры: отсутствуют

Подробные технические данные

Полное имя : Я видел как мыши кота хоронили.aviФормат : AVIФормат/Информация : Audio Video InterleaveРазмер файла : 51,2 МбайтПродолжительность : 5 м. 31 с.Общий поток : 1297 Кбит/секПрограмма кодирования : VirtualDubMod 1.5.10.3 | www.virtualdub-fr.org || (build 2550/release)Библиотека кодирования : VirtualDubMod build 2550/release
ВидеоИдентификатор : 0Формат : MPEG-4 VisualПрофиль формата : Advanced Simple@L5Параметр BVOP формата : 1Параметр QPel формата : НетПараметр GMC формата : Без точки переходаПараметр матрицы формата : Default (H.263)Идентификатор кодека : DIVXИдентификатор кодека/Информация : Project MayoИдентификатор кодека/Подсказка : DivX 4Продолжительность : 5 м. 31 с.Битрейт : 1095 Кбит/секШирина : 720 пикселейВысота : 416 пикселейСоотношение сторон : 1,731Частота кадров : 25,000 кадров/секЦветовое пространство : YUVСубдискретизация насыщенности : 4:2:0Битовая глубина : 8 битТип развёртки : ПрогрессивнаяМетод сжатия : С потерямиБит/(Пиксели*Кадры) : 0.146Размер потока : 43,2 Мбайт (84%)Библиотека кодирования : XviD 1.2.1 (UTC 2008-12-04)
АудиоИдентификатор : 1Формат : MPEG AudioВерсия формата : Version 1Профиль формата : Layer 3Идентификатор кодека : 55Идентификатор кодека/Подсказка : MP3Продолжительность : 5 м. 31 с.Вид битрейта : ПостоянныйБитрейт : 192 Кбит/секКаналы : 2 каналаЧастота : 48,0 КГцМетод сжатия : С потерямиРазмер потока : 7,58 Мбайт (15%)Выравнивание : Соединение по промежуткамПродолжительность промежутка : 40 мс. (1,00 видеокадр)Время предзагрузки промежутка : 504 мс.Библиотека кодирования : LAME3.99rНастройки программы : -m s -V 4 -q 0 -lowpass 18.6 -b 192

Скриншоты



[Профиль] [ЛС]
Кто просматривает тему:

Показать сообщения:    

Текущее время: Сегодня 05:19

Часовой пояс: GMT



Вы не можете начинать темы
Вы не можете отвечать на сообщения
Вы не можете редактировать свои сообщения
Вы не можете удалять свои сообщения
Вы не можете голосовать в опросах
Вы не можете прикреплять файлы к сообщениям
Вы не можете скачивать файлы