Я вернусь в прошлое и изменю жизнь / Torno indietro e cambio vita (Карло Ванзина / Carlo Vanzina) [2015, Италия, комедия, фантастика, DVDRip] Sub Rus + Original Ita

 
Автор Сообщение

TorrentFilm ®

Пол:

Стаж: 2 года

Сообщений: 7741



Награды: Нет

Торрент-статистика

Создавать темы 05-Ноя-2015 00:09

[Цитировать]

Я вернусь в прошлое и изменю жизнь / Начни жизнь с начала / Torno indietro e cambio vita
Страна: Италия
Жанр: комедия, фантастика
Год выпуска: 2015
Продолжительность: 01:27:18
Перевод: Субтитры (М.Васильев)
Cубтитры: русские
Оригинальная аудиодорожка: итальянский
Режиссер: Карло Ванзина / Carlo Vanzina
В ролях: Рауль Бова, Джулиа Микелини, Рики Мемфис, Паола Миначони, Макс Тортора
Описание: Марко и Клаудио дружат со школы, сейчас им обоим уже за 40. Марко бросила жена, а Клаудио никак не может жениться, потому что живет с престарелой матерью-алкоголичкой, отпугивающей всех его подружек. Неожиданно в результате автокатастрофы они перемещаются во времени на 25 лет назад и получают возможность изменить свою жизнь. Марко решает предотвратить свой брак, а Клаудио - вылечить от алкоголизма свою мамашу.
Доп. информация:
Очень смешное кино (имхо)
Фильм предоставлен для перевода пользователем Maxj
Релиз подготовлен РГ TRANSLATORS

IMDB
КИНОПОИСК
Сэмпл
Качество видео: DVDRip
Формат видео: AVI
Видео: 1596 Kbps, 720x304 (2.35:1) 24 000 fps, XviD
Аудио: 640 Kbps, 48.0 KHz, 16 bits, 6 ch, AC 3
Формат субтитров: softsub (SRT)

MediaInfo

General
Complete name : E:\италия\италия.avi
Format : AVI
Format/Info : Audio Video Interleave
File size : 1.37 GiB
Duration : 1h 27mn
Overall bit rate : 2 243 Kbps
Writing application : VirtualDubMod 1.5.4.1 (build 2178/release)
Writing library : VirtualDubMod build 2178/release
Video
ID : 0
Format : MPEG-4 Visual
Format profile : Advanced Simple@L5
Format settings, BVOP : 1
Format settings, QPel : No
Format settings, GMC : No warppoints
Format settings, Matrix : Custom
Codec ID : XVID
Codec ID/Hint : XviD
Duration : 1h 27mn
Bit rate : 1 596 Kbps
Width : 720 pixels
Height : 304 pixels
Display aspect ratio : 2.35:1
Frame rate : 24.000 fps
Color space : YUV
Chroma subsampling : 4:2:0
Bit depth : 8 bits
Scan type : Progressive
Compression mode : Lossy
Bits/(Pixel*Frame) : 0.304
Stream size : 997 MiB (71%)
Writing library : XviD 64
Audio
ID : 1
Format : AC-3
Format/Info : Audio Coding 3
Mode extension : CM (complete main)
Format settings, Endianness : Big
Codec ID : 2000
Duration : 1h 27mn
Bit rate mode : Constant
Bit rate : 640 Kbps
Channel(s) : 6 channels
Channel positions : Front: L C R, Side: L R, LFE
Sampling rate : 48.0 KHz
Bit depth : 16 bits
Compression mode : Lossy
Stream size : 400 MiB (29%)
Alignment : Split accross interleaves
Interleave, duration : 96 ms (2.30 video frames)
Interleave, preload duration : 96 ms

Скриншот c названием фильма

Скриншоты





Титры

1
00:00:50,958 --> 00:00:54,624
НАЧНИ ЖИЗНЬ
С НАЧАЛА
2
00:03:02,791 --> 00:03:04,999
Джулия, вставай.
3
00:03:05,208 --> 00:03:07,040
Уже 7 часов.
4
00:03:07,250 --> 00:03:09,540
Еще 5 минут.
5
00:03:09,750 --> 00:03:11,749
Вставай, лежебока.
6
00:03:12,416 --> 00:03:13,790
Давай.
7
00:03:16,791 --> 00:03:18,999
Идем завтракать.
8
00:03:20,458 --> 00:03:22,082
Витамин А,
9
00:03:22,291 --> 00:03:24,707
Б, Ц,
полный комплект.
10
00:03:25,583 --> 00:03:28,832
Это мои противозачаточные.
11
00:03:31,375 --> 00:03:32,790
Уже проглотил.
12
00:03:33,000 --> 00:03:34,707
Дай воды.
13
00:03:34,916 --> 00:03:36,915
- Это ж не опасно?
- Без понятия.
14
00:03:37,958 --> 00:03:39,582
Привет, Умберто.
15
00:03:39,791 --> 00:03:41,415
Привет, Умберто.
16
00:03:41,625 --> 00:03:42,915
Как дела?
17
00:03:46,583 --> 00:03:48,624
Спасибо, все отлично.
18
00:03:52,583 --> 00:03:55,749
- Доброе утро.
- Это вам.
19
00:03:55,958 --> 00:03:58,165
Спасибо.
20
00:03:59,375 --> 00:04:01,999
Маленький циклоп
подходит к отцу:
21
00:04:02,208 --> 00:04:04,415
"Папа, какой у тебя
большой глаз!"
22
00:04:04,666 --> 00:04:08,290
Отец: "Руки прочь
от моей мошонки!"
23
00:04:11,333 --> 00:04:13,415
Мариотти, до
тебя опять не дошло?
24
00:04:13,958 --> 00:04:16,582
Два месяца назад жена
наставила мне рога,
25
00:04:17,583 --> 00:04:21,415
она сбежала с моим дантистом
и подала на развод,
26
00:04:21,625 --> 00:04:23,915
она отсудила дом,
ребенка
27
00:04:24,125 --> 00:04:26,124
и половину моей зарплаты.
28
00:04:26,333 --> 00:04:29,749
Так что,
мне не до смеха.
29
00:04:29,958 --> 00:04:33,957
Ты такой пессимист.
Ну, нельзя же так!
30
00:04:46,958 --> 00:04:48,790
Привет.
[Профиль] [ЛС]
Кто просматривает тему:

Показать сообщения:    

Текущее время: Сегодня 18:41

Часовой пояс: GMT



Вы не можете начинать темы
Вы не можете отвечать на сообщения
Вы не можете редактировать свои сообщения
Вы не можете удалять свои сообщения
Вы не можете голосовать в опросах
Вы не можете прикреплять файлы к сообщениям
Вы не можете скачивать файлы