Я буду рядом (Павел Руминов) [2012, Россия, Украина, драма, DVD5] Sub Eng + Original Rus

 
Автор Сообщение

TorrentFilm ®

Пол:

Стаж: 2 года

Сообщений: 7741



Награды: Нет

Торрент-статистика

Создавать темы 01-Янв-2016 00:13

[Цитировать]

Я буду рядом- Страна:Россия, Украина
Студия: Enjoy Movies / Квартал-95 / ТПО Рок
Жанр: драма
Год выпуска: 2012
Продолжительность: 01:35:02-Cубтитры: английские
Оригинальная аудиодорожка: русский-Режиссер: Павел Руминов
В ролях: Мария Шалаева, Роман Зенчук, Мария Сёмкина, Иван Волков, Елена Морозова, Алиса Хазанова, Иван Кокорин, Михаил Крылов, Анастасия Захарова, Тихон Корнев-Описание: Инна — успешная молодая женщина с отличным чувством юмора. Она работает менеджером ресторана, по праву заслужив уважение и любовь коллег и начальства. А еще у нее есть самый важный человек на свете — 6-летний сын Митя, которого Инна воспитывает одна. На зависть окружающим, между матерью и ребенком сложились трогательные, добрые, заботливые отношения. Но неожиданно Инну настигает страшная беда — неизлечимая болезнь. Теперь главное для Инны — найти маленькому Мите новых родителей, иначе ребенок останется одиноким сиротой.- -Бонусы: отсутствуют
Меню: на русском языке, статичное, озвученное-Тип релиза: DVD5
Контейнер: DVD-Video-Видео: PAL 16:9 (720x576) VBR Auto Letterboxed; 25,000 fps; 5978 kbps
Аудио: Russian (Dolby AC3, 6 chб 448 Кбит/сек, 48,0 КГц)
Формат субтитров: prerendered (DVD/IDX+SUB)

MediaInfo

Общее
Полное имя : F:Ja.budu.rjadom.2012.DVD5\VIDEO_TS\VTS_02_1.VOB
Формат : MPEG-PS
Размер файла : 1024 Мбайт
Продолжительность : 21 м.
Общий поток : 6556 Кбит/сек
Видео
Идентификатор : 224 (0xE0)
Формат : MPEG Video
Версия формата : Version 2
Профиль формата : Main@Main
Параметр BVOP формата : Да
Параметр матрицы формата : По умолчанию
Продолжительность : 21 м.
Вид битрейта : Переменный
Битрейт : 5978 Кбит/сек
Номинальный битрейт : 8500 Кбит/сек
Ширина : 720 пикс.
Высота : 576 пикс.
Соотношение сторон : 16:9
Частота кадров : 25,000 кадр/сек
Стандарт вещания : PAL
Цветовое пространство : YUV
Подвыборка цветности : 4:2:0
Битовая глубина : 8 бит
Тип развёртки : Прогрессивная
Метод сжатия : С потерями
Бит/(Пиксели*Кадры) : 0.577
Размер потока : 934 Мбайт (91%)
Аудио
Идентификатор : 189 (0xBD)-128 (0x80)
Формат : AC-3
Формат/Информация : Audio Coding 3
Расширение режима : CM (complete main)
Режим смешивания : DVD-Video
Продолжительность : 21 м.
Вид битрейта : Постоянный
Битрейт : 448 Кбит/сек
Каналы : 6 каналов
Расположение каналов : Front: L C R, Side: L R, LFE
Частота : 48,0 КГц
Битовая глубина : 16 бит
Метод сжатия : С потерями
Размер потока : 70,0 Мбайт (7%)
Меню

DVDInfo

Title: Ja.budu.rjadom.2012.DVD5
Size: 4.04 Gb ( 4 237 954,00 KBytes ) - DVD-5
Enabled regions: 1, 2, 3, 4, 5, 6, 7, 8
VTS_01 :
Play Length: 00:00:16
Video: PAL 16:9 (720x576) VBR, Auto Letterboxed
Audio:
Russian (Dolby AC3, 2 ch)
VTS_02 :
Play Length: 01:35:02
Video: PAL 16:9 (720x576) VBR, Auto Letterboxed
Audio:
Russian (Dolby AC3, 6 ch)
Subtitles:
English
* Menus Information *
VIDEO_TS Menu
Video:
PAL 4:3 (720x576) VBR
Auto Pan&Scan, Auto Letterboxed
Russian Language Unit :
Title Menu
VTS_01 Menu
Video:
PAL 4:3 (720x576) VBR
Auto Pan&Scan, Auto Letterboxed
Language Unit :
Chapter (PTT) Menu
VTS_02 Menu
Video:
PAL 16:9 (720x576) VBR
Auto Letterboxed
Audio:
Not specified (Dolby AC3, 2 ch)
Russian Language Unit :
Root Menu
Subpicture Menu
Chapter (PTT) Menu

Скриншоты меню

Скриншоты

[Профиль] [ЛС]
Кто просматривает тему:

Показать сообщения:    

Текущее время: Сегодня 21:02

Часовой пояс: GMT



Вы не можете начинать темы
Вы не можете отвечать на сообщения
Вы не можете редактировать свои сообщения
Вы не можете удалять свои сообщения
Вы не можете голосовать в опросах
Вы не можете прикреплять файлы к сообщениям
Вы не можете скачивать файлы