Ящик Пандоры / Pandora\'nin kutusu (Есим Устаоглу / Yesim Ustaoglu) [2008, Турция, Франция, Германия, Бельгия, Драма, DVDRip] VO (Pashaup)

 
Автор Сообщение

painkiller ®

Стаж: 2 года 3 месяца

Сообщений: 582



Награды: Нет

Торрент-статистика

Создавать темы 15-Авг-2014 01:09

[Цитировать]

Ящик Пандоры / Pandora'nin kutusu
Страна: Турция, Франция, Германия, Бельгия
Жанр: Драма
Год выпуска: 2008
Продолжительность: 01:49:24
Перевод: Одноголосый закадровый [ Pashaup ]
Cубтитры: нет
Оригинальная аудиодорожка: нет
Режиссер: Есим Устаоглу / Yesim Ustaoglu
В ролях: Онур Юнсаль, Дерия Алабора, Цилла Челтон, Ёвюль Авкиран, Осман Сонант, Тайфун Бадемсой, Илкер Озйилдирим, Назми Кирик, Эмрах Тинте
Описание: Когда старая мать, живущая в горном селе, начинает проявлять признаки старческого слабоумия, её живущие в городе дети, несмотря на конфликты прошлого, вынуждены объединить усилия и взять заботу о ней на себя. Они забирают ее в город, и приезд матери словно открывает ящик Пандоры со всеми их семейными проблемами. И кто бы мог подумать, что больше всего сочувствия к больной проявит именно тот, от кого, казалось бы, этого можно было ждать менее всего… Думается, многие из нас могут узнать самих себя в ком-то из героев этого фильма.
Доп. информация:
Озвучено по субтитрам lobo
По просьбе edus67
Релиз-группа:
Нормальное видео скачать не удалось, так как нет раздачи, пришлось работать с этим!
Сэмпл: http://sendfile.su/931174
Качество видео: DVDRip
Формат видео: AVI
Видео: 656x360, 760 kbps, xvid, 25 fps
Аудио: MP3, 2 ch, 128 Кбит/с

MediaInfo

Формат : AVI
Формат/Информация : Audio Video Interleave
Размер файла : 702 Мбайт
Продолжительность : 1 ч. 49 м.
Общий поток : 898 Кбит/сек
Название фильма : Приятного Вам просмотра!
Программа кодирования : VirtualDubMod 1.5.10.2 (build 2540/release)
Видео
Идентификатор : 0
Формат : xvid
Идентификатор кодека : xvid
Продолжительность : 1 ч. 49 м.
Битрейт : 760 Кбит/сек
Ширина : 656 пикселей
Высота : 360 пикселей
Соотношение сторон : 1,85:1
Частота кадров : 25,000 кадров/сек
Бит/(Пиксели*Кадры) : 0.129
Размер потока : 595 Мбайт (85%)
Аудио
Идентификатор : 1
Формат : MPEG Audio
Версия формата : Version 1
Профиль формата : Layer 3
Режим : Joint stereo
Расширение режима : MS Stereo
Идентификатор кодека : 55
Идентификатор кодека/Подсказка : MP3
Продолжительность : 1 ч. 49 м.
Вид битрейта : Постоянный
Битрейт : 128 Кбит/сек
Каналы : 2 канала
Частота : 48,0 КГц
Метод сжатия : С потерями
Размер потока : 100 Мбайт (14%)
Выравнивание : Соединение по промежуткам
Продолжительность промежутка : 40 мс. (1,00 видеокадр)
Время предзагрузки промежутка : 504 мс.

Скриншот c названием фильма

Скриншоты




[Профиль] [ЛС]

Создавать темы 06-Авг-2015 23:11 (спустя 11 месяцев 22 дня)

Топик был перенесен из форума Фильмы до 2014 года в форум Фильмы до 2012 года
sergej644
 

Создавать темы 12-Июн-2016 08:51 (спустя 1 год 9 месяцев)

Топик был перенесен из форума Фильмы 2011 года в форум Фильмы 2006-2008 года
Russian Mafia
 
Кто просматривает тему:

Показать сообщения:    

Текущее время: Сегодня 16:26

Часовой пояс: GMT



Вы не можете начинать темы
Вы не можете отвечать на сообщения
Вы не можете редактировать свои сообщения
Вы не можете удалять свои сообщения
Вы не можете голосовать в опросах
Вы не можете прикреплять файлы к сообщениям
Вы не можете скачивать файлы