Ярость / Неистовство / Rampage (2009) BDRip 1080p | Uncut

 
Автор Сообщение

Russian Mafia ®

Пол:

Стаж: 1 год 8 месяцев

Сообщений: 4247



Награды: 10 (Подробнее)

Top Releaser 4 (Количество: 1) Top Releaser 3 (Количество: 1) Top Releaser 5 (Количество: 1)
Торрент-статистика

Создавать темы 19-Сен-2016 05:51

[Цитировать]

Информация о фильме
Название: Ярость
Оригинальное название: Rampage
Год выхода: 2009
Жанр: триллер, драма, криминал
Режиссер: Уве Болл
В ролях: Брендан Флетчер, Шон Сайпос, Майкл Паре, Мэтт Фрюэр, Линда Бойд, Роберт Кларк, Малкольм Стюарт, Стеффен Меннекс, Кэти Грэйс, Лори Брунетти
О фильме: Билл Уильямсон — обычный парень из тихого американского городка. Но в «один прекрасный день» он «вооружается до зубов» и выходит на улицу. Билл с упорством настоящего маньяка истребляет жителей города, полагая, что все они виновны в мировых политико-экономических катаклизмах, о которых каждый день говорят в новостях по телевизору… Эффект реалистичности происходящего усиливает съемка трясущейся камерой и повествование от лица убийцы.
Доп. инф.: Uncut версия - содержит больше насилия и совершенно другую концовку. Есть непереведенные места, буквально 6 секунд в середине и концовка. На них форс. субтитры или полный перевод без цензуры от zamez.

Выпущено: Event Film Distribution
Продолжительность: 01:24:40
Перевод: Профессиональный (двухголосый, закадровый) + Одноголосый любительский (zamez)
Файл
Кодек: x264
Качество: BDRip (источник: Blu-ray Disc)
Видео: 1920x800 (2,40:1), 23.976 fps, 8400 kbps
Аудио #1: AC-3, 6 ch, 448 kbps (Двухголосый закадровый, Veles Studio)
Аудио #2: AC-3, 6 ch, 448 kbps (Одноголосый закадровый, zamez)
Аудио #3: AC-3, 6 ch, 448 kbps (Оригинал)
Субтитры: Русские (форс,полные), Английские
Скриншоты

MI

Общее
Уникальный идентификатор : 178668324823007644087800865893333596862 (0x866A44874466C8708AE39E19995BFABE)
Полное имя : Rampage.2009.BDRip.1080p.Rus.Eng.mkv
Формат : Matroska
Версия формата : Version 2
Размер файла : 5,76 Гбайт
Продолжительность : 1 ч. 24 м.
Общий поток : 9743 Кбит/сек
Название фильма : Ярость / Rampage (2009)
Дата кодирования : UTC 2012-07-27 05:50:52
Программа кодирования : mkvmerge v5.7.0 ('The Whirlwind') built on Jul 8 2012 20:08:51
Библиотека кодирования : libebml v1.2.3 + libmatroska v1.3.0
Видео
Идентификатор : 1
Формат : AVC
Формат/Информация : Advanced Video Codec
Профиль формата : High@L4.1
Параметр CABAC формата : Да
Параметр ReFrames формата : 5 кадров
Идентификатор кодека : V_MPEG4/ISO/AVC
Продолжительность : 1 ч. 24 м.
Битрейт : 8400 Кбит/сек
Ширина : 1920 пикселей
Высота : 800 пикселей
Соотношение сторон : 2,40:1
Частота кадров : 23,976 кадра/сек
Цветовое пространство : YUV
Субдискретизация насыщенности : 4:2:0
Битовая глубина : 8 бит
Тип развёртки : Прогрессивная
Бит/(Пиксели*Кадры) : 0.228
Размер потока : 4,85 Гбайт (84%)
Заголовок : Release by AlexKa
Библиотека кодирования : x264 core 125 r2208 d9d2288
Настройки программы : cabac=1 / ref=5 / deblock=1:0:0 / analyse=0x3:0x133 / me=umh / subme=10 / psy=1 / psy_rd=1.00:0.10 / mixed_ref=1 / me_range=32 / chroma_me=1 / trellis=2 / 8x8dct=1 / cqm=0 / deadzone=21,11 / fast_pskip=0 / chroma_qp_offset=-3 / threads=12 / lookahead_threads=2 / sliced_threads=0 / nr=0 / decimate=0 / interlaced=0 / bluray_compat=0 / constrained_intra=0 / bframes=5 / b_pyramid=2 / b_adapt=2 / b_bias=0 / direct=3 / weightb=1 / open_gop=0 / weightp=2 / keyint=240 / keyint_min=23 / scenecut=40 / intra_refresh=0 / rc=2pass / mbtree=0 / bitrate=8400 / ratetol=1.0 / qcomp=0.60 / qpmin=0 / qpmax=69 / qpstep=4 / cplxblur=20.0 / qblur=0.5 / ip_ratio=1.40 / pb_ratio=1.30 / aq=1:0.80
Язык : English
Аудио #1
Идентификатор : 2
Формат : AC-3
Формат/Информация : Audio Coding 3
Расширение режима : CM (complete main)
Идентификатор кодека : A_AC3
Продолжительность : 1 ч. 24 м.
Вид битрейта : Постоянный
Битрейт : 448 Кбит/сек
Каналы : 6 каналов
Расположение каналов : Front: L C R, Side: L R, LFE
Частота : 48,0 КГц
Битовая глубина : 16 бит
Метод сжатия : С потерями
Размер потока : 271 Мбайт (5%)
Заголовок : Двухголосый закадровый, Veles Studio
Язык : Russian
Аудио #2
Идентификатор : 3
Формат : AC-3
Формат/Информация : Audio Coding 3
Расширение режима : CM (complete main)
Идентификатор кодека : A_AC3
Продолжительность : 1 ч. 24 м.
Вид битрейта : Постоянный
Битрейт : 448 Кбит/сек
Каналы : 6 каналов
Расположение каналов : Front: L C R, Side: L R, LFE
Частота : 48,0 КГц
Битовая глубина : 16 бит
Метод сжатия : С потерями
Размер потока : 271 Мбайт (5%)
Заголовок : Одноголосый закадровый, zamez
Язык : Russian
Аудио #3
Идентификатор : 4
Формат : AC-3
Формат/Информация : Audio Coding 3
Расширение режима : CM (complete main)
Идентификатор кодека : A_AC3
Продолжительность : 1 ч. 24 м.
Вид битрейта : Постоянный
Битрейт : 448 Кбит/сек
Каналы : 6 каналов
Расположение каналов : Front: L C R, Side: L R, LFE
Частота : 48,0 КГц
Битовая глубина : 16 бит
Метод сжатия : С потерями
Размер потока : 271 Мбайт (5%)
Заголовок : Оригинал
Язык : English
Текст #1
Идентификатор : 5
Формат : UTF-8
Идентификатор кодека : S_TEXT/UTF8
Идентификатор кодека/Информация : UTF-8 Plain Text
Заголовок : Rus forced
Язык : Russian
Текст #2
Идентификатор : 6
Формат : UTF-8
Идентификатор кодека : S_TEXT/UTF8
Идентификатор кодека/Информация : UTF-8 Plain Text
Заголовок : Rus
Язык : Russian
Текст #3
Идентификатор : 7
Формат : UTF-8
Идентификатор кодека : S_TEXT/UTF8
Идентификатор кодека/Информация : UTF-8 Plain Text
Заголовок : Eng
Язык : English
Меню
00:00:00.000 : :Chapter 01
00:07:50.345 : :Chapter 02
00:14:41.254 : :Chapter 03
00:21:46.638 : :Chapter 04
00:29:49.286 : :Chapter 05
00:40:48.695 : :Chapter 06
00:46:14.480 : :Chapter 07
00:54:36.190 : :Chapter 08
01:00:48.686 : :Chapter 09
01:06:55.510 : :Chapter 10
01:13:14.515 : :Chapter 11
01:17:52.877 : :Chapter 12
[Профиль] [ЛС]
Показать сообщения:    

Текущее время: Сегодня 04:18

Часовой пояс: GMT



Вы не можете начинать темы
Вы не можете отвечать на сообщения
Вы не можете редактировать свои сообщения
Вы не можете удалять свои сообщения
Вы не можете голосовать в опросах
Вы не можете прикреплять файлы к сообщениям
Вы не можете скачивать файлы