Ярослав. Тысячу лет назад (2010) BDRip 1080p

 
Автор Сообщение

sergej644 ®

Пол:

Стаж: 4 года 11 месяцев

Сообщений: 6035

Откуда: Soviet Union



Награды: Нет

Торрент-статистика

Создавать темы 27-Янв-2015 04:42

[Цитировать]

Информация о фильме
Название: Ярослав. Тысячу лет назад
Год выхода: 2010
Жанр: приключения, история
Режиссер: Дмитрий Коробкин
В ролях: Александр Ивашкевич, Алексей Кравченко, Светлана Чуйкина, Валерий Золотухин, Виктор Вержбицкий, Елена Плаксина, Борис Токарев, Владимир Антоник, Юрий Ваксман, Павел Хрулев...
О фильме:
Киевская Русь, начало второго тысячелетия. Ростовские земли полыхают от межплеменных войн. В лесах, по дорогам и рекам хозяйничают разбойничьи ватаги. Разбойники продают людей Хазарам, которые сплавляют рабов в низовья Волги для перепродажи. Чтобы остановить работорговлю молодому Князю Ярославу предстоит объединить земли и народы Ростова. Победить врага можно только преодолев предубеждения и остановив религиозные и этнические конфликты внутри княжества. На месте уничтоженного разбойничьего логова Ярослав основывает город, который позже люди назовут его именем.

Страна: Россия
Продолжительность: 01:43:27
Перевод: Оригинал
Файл
Кодек: H264
Качество: BDRip 1080p
Видео: 1920x816, 5658 Kbps, 23,976 fps
Звук: 48 kHz, AC3, 6c, 384 kbps
Субтитры: Нет
Семпл

MI

Общее
Формат : Matroska
Версия формата : Version 2
Размер файла : 4,36 Гбайт
Продолжительность : 1 ч. 43 м.
Общий поток : 6021 Кбит/сек
Название фильма : Ярослав. Тысячу лет назад (2010) BDRip 1080p от Dimok
Дата кодирования : UTC 2012-03-26 06:19:40
Программа кодирования : mkvmerge v5.4.0 ('Piper') built on Mar 10 2012 13:34:39
Библиотека кодирования : libebml v1.2.3 + libmatroska v1.3.0
Видео
Идентификатор : 1
Формат : AVC
Формат/Информация : Advanced Video Codec
Профиль формата : High@L4.1
Параметр CABAC формата : Да
Параметр ReFrames формата : 5 кадров
Идентификатор кодека : V_MPEG4/ISO/AVC
Продолжительность : 1 ч. 43 м.
Битрейт : 5658 Кбит/сек
Ширина : 1920 пикселей
Высота : 816 пикселей
Соотношение сторон : 2,35:1
Частота кадров : 23,976 кадра/сек
Цветовое пространство : YUV
Субдискретизация насыщенности : 4:2:0
Битовая глубина : 8 бит
Тип развёртки : Прогрессивная
Бит/(Пиксели*Кадры) : 0.151
Размер потока : 4,00 Гбайт (92%)
Библиотека кодирования : x264 core 120 r2164+656 2ff844c
Настройки программы : cabac=1 / ref=5 / deblock=1:0:0 / analyse=0x3:0x133 / me=umh / subme=10 / psy=1 / fade_compensate=0.00 / psy_rd=1.00:0.10 / mixed_ref=1 / me_range=32 / chroma_me=1 / trellis=2 / 8x8dct=1 / cqm=0 / deadzone=21,11 / fast_pskip=0 / chroma_qp_offset=-3 / threads=6 / sliced_threads=0 / nr=0 / decimate=1 / interlaced=0 / bluray_compat=0 / constrained_intra=0 / fgo=0 / bframes=6 / b_pyramid=2 / b_adapt=2 / b_bias=0 / direct=3 / weightb=1 / open_gop=0 / weightp=2 / keyint=240 / keyint_min=24 / scenecut=40 / intra_refresh=0 / rc_lookahead=60 / rc=2pass / mbtree=1 / bitrate=5658 / ratetol=1.0 / qcomp=0.60 / qpmin=0 / qpmax=69 / qpstep=4 / cplxblur=20.0 / qblur=0.5 / ip_ratio=1.40 / aq=1:1.00
Язык : Russian
Аудио
Идентификатор : 2
Формат : AC-3
Формат/Информация : Audio Coding 3
Расширение режима : CM (complete main)
Идентификатор кодека : A_AC3
Продолжительность : 1 ч. 43 м.
Вид битрейта : Постоянный
Битрейт : 384 Кбит/сек
Каналы : 6 каналов
Расположение каналов : Front: L C R, Side: L R, LFE
Частота : 48,0 КГц
Битовая глубина : 16 бит
Метод сжатия : С потерями
Размер потока : 285 Мбайт (6%)
Заголовок : Оригинал
Язык : Russian
[Профиль] [ЛС]
Показать сообщения:    

Текущее время: Сегодня 07:01

Часовой пояс: GMT



Вы не можете начинать темы
Вы не можете отвечать на сообщения
Вы не можете редактировать свои сообщения
Вы не можете удалять свои сообщения
Вы не можете голосовать в опросах
Вы не можете прикреплять файлы к сообщениям
Вы не можете скачивать файлы