Янтарная комната. (2 из 2х) (Ольга Кушаковская) [2015, Документальный, HDTV 1080i]

 
Автор Сообщение

TorrentFilm ®

Пол:

Стаж: 2 года

Сообщений: 7741



Награды: Нет

Торрент-статистика

Создавать темы 28-Май-2015 00:04

[Цитировать]

Янтарная комната
Дата выхода: 23-24/05/2015
Страна: Россия
Производство: ТК "Останкино"
Жанр: Документальный
Продолжительность: 00:52:22 и 00:49:37
Перевод: Не требуется
Автор и режиссер: Ольга Кушаковская
Продюсер: Сергей Медведев
Описание:
Судьба знаменитой "Янтарной комнаты", которую похитили из Царского села во время Великой Отечественной Войны - это тайна века. Никому реально не удалось до сих пор приблизиться к ней.
Наш фильм – журналистское расследование. Оно будет построено исключительно на документально подтвержденных фактах, собранных в архиве убитого немецкого искателя Янтарной комнаты Георга Штайна, современных исследованиях историка Александра Мосякина, а также засекреченных материалах из отчета специальных комиссий, созданных в 1949 году в СССР и в ГДР для поиска Янтарной комнаты. Впервые по материалам найденного в Калиниграде уникального архива Георга Штайна будет восстановлена вся запутанная цепочка событий, связанных с Янтарной комнатой во время и после Великой Отечественной войны.
Ведущий расследования Сергей Медведев
Янтарная комната стала своеобразным "Граалем двадцатого века", о котором грезили многие. Эту драгоценность искали тысячи охотников за сокровищами, Гитлер мечтал сделать ее главной достопримечательностью своего музея в Линце и надеялся, что она вылечит его расшатанную нервную систему. Янтарь! Но комната пропала не только для фюрера, но и для всего человечества. За 70 лет со дня окончания Великой Отечественной войны выдвигалось огромное количество версий и предположений. Но ни одна не ответила достоверно на вопрос – где находится эта комната? И сохранилась ли она?
В нашем фильме мы шаг за шагом пройдем по пути исчезновения "Янтарной комнаты", опираясь только на факты и документы.

Продолжение

Ключом к успеху наших поисков стал архив немецкого искателя "Янтарной комнаты" Георга Штайна, который все эти годы пылился в государственном архиве калининградской области. Георг Штайн потратил гигантские суммы и многие годы жизни, чтобы отыскать и вернуть нашей стране огромные богатства, награбленные фашистами. Из-за этих поисков он полностью разорился, похоронил жену и был зверски убит в 1987 году. Его нашли в лесу на окраине городка Альтдорф с восемью ножевыми ранениями. Что за тайные знания стали причиной гибели знаменитого искателя? Незадолго до убийства Штайн собирался провести пресс-конференцию, на которой обещал рассказать, где находится Янтарная комната. Но не успел. После его смерти друг Штайна, барон Фальц-Фейн выкупил его архив у семьи и подарил Российскому Фонду Культуры. Не зная, что делать с подарком, чиновники передали документы в Калининград и благополучно забыли. Вместе с исследователем деятельности Штайна историком, публицистом Александром Мосякиным мы провели свое собственное расследование, чтобы пролить свет на эту историю. Именно Мосякин расшифровал документы Штайна по Янтарной комнате и именно он продолжил его расследование, опираясь на новые современные факты, всплывающие в этой запутанной истории. Мы стали первыми, кто раскрыл тайну этого архива и прошел по запутанному следу исчезнувшей Янтарной комнаты. Наш результат – сенсация! Мы нашли место, где находится знаменитая Янтарная комната.
Калининград – основное место действия фильма. Ведущий нашего фильма Сергей Медведев вместе с Александром Мосякиным проводит расследование на местах предполагаемых событий – Государственный архив калининградской области, где хранятся личные документы Штайна. Сергей Медведев делится и собственными воспоминаниями (он родом из Калининграда), встречается с людьми, которые тоже могут пролить свет на события 70-летней давности. В фильме будет использована уникальная немецкая и советская хроника. Впервые будут показаны недавно обнаруженные архивные документы.
В фильме примут участие:
Александр Мосякин – историк, писатель, автор серии книг о "Янтарной комнате"
Николай Никандров – главный редактор сводного каталога культурных ценностей, похищенных и утраченных в период второй мировой войны, полковник ФСБ в отставке
Андрей Пржездомский – писатель, автор книг по "Янтарной комнате", в том числе "Секретные бункеры Калининграда".
Лариса Бардовская – Зам. директора Государственного музея-заповедника "Царское Село"
Анатолий Бахтин – главный архивариус "Государственного архива Калининградской области"
Зоя Костяшова – ведущий научный сотрудник Калининградского областного музея янтаря.
Вольфганг Айхведе – искусствовед, профессор Бременского университета.
Во второй серии фильма мы расскажем о трагической судьбе немецкого искателя "Янтарной комнаты" Георга Штайна и о двух его находках, за которые он поплатился жизнью – сокровищах "стеклянных гробов" и нацистском кладе из шахты Гросслебен.
Вы узнаете, почему ящики с "Янтарной комнатой" исчезли из королевского замка в Кенигсберге. Куда они попали. И куда нас привели следы "Янтарной комнаты" в финале расследования.
Тип релиза: HDTV 1080i
Контейнер: TS
Видео: MPEG4 Video (H264) 1920x1080 25.00fps 10.1Mbps и 9122kbps
Аудио: MPEG Audio 48000Hz stereo 192kbps

MediaInfo

ОбщееИдентификатор : 1 (0x1)Полное имя : *:\Янтарная комната (2 из 2).2015.HDTV.1080i\Янтарная комната. Фильм-1й.HDTV.1080i.tsФормат : MPEG-TSРазмер файла : 3,97 ГбайтПродолжительность : 52 м.Режим общего битрейта : ПеременныйОбщий поток : 10,9 Мбит/сек
ВидеоИдентификатор : 1603 (0x643)Идентификатор меню : 1 (0x1)Формат : AVCФормат/Информация : Advanced Video CodecПрофиль формата : High@L4Параметр CABAC формата : ДаПараметр ReFrames формата : 3 кадраИдентификатор кодека : 27Продолжительность : 52 м.Битрейт : 10,1 Мбит/секШирина : 1920 пикселейВысота : 1080 пикселейСоотношение сторон : 16:9Частота кадров : 25,000 кадров/секСтандарт вещания : ComponentЦветовое пространство : YUVСубдискретизация насыщенности : 4:2:0Битовая глубина : 8 битТип развёртки : ЧересстрочнаяПорядок развёртки : Верхнее поле первоеБит/(Пиксели*Кадры) : 0.195Размер потока : 3,70 Гбайт (93%)Цветовой диапазон : LimitedОсновные цвета : BT.709Характеристики трансфера : BT.709Коэффициенты матрицы : BT.709
АудиоИдентификатор : 2603 (0xA2B)Идентификатор меню : 1 (0x1)Формат : MPEG AudioВерсия формата : Version 1Профиль формата : Layer 2Идентификатор кодека : 3Продолжительность : 52 м.Вид битрейта : ПостоянныйБитрейт : 192 Кбит/секКаналы : 2 каналаЧастота : 48,0 КГцМетод сжатия : С потерямиРазмер потока : 71,9 Мбайт (2%)Язык : Russian
ОбщееИдентификатор : 1 (0x1)Полное имя : *:\Янтарная комната (2 из 2).2015.HDTV.1080i\Янтарная комната. Фильм-2й.HDTV.1080i.tsФормат : MPEG-TSРазмер файла : 3,40 ГбайтПродолжительность : 49 м.Режим общего битрейта : ПеременныйОбщий поток : 9800 Кбит/сек
ВидеоИдентификатор : 1603 (0x643)Идентификатор меню : 1 (0x1)Формат : AVCФормат/Информация : Advanced Video CodecПрофиль формата : High@L4Параметр CABAC формата : ДаПараметр ReFrames формата : 3 кадраИдентификатор кодека : 27Продолжительность : 49 м.Битрейт : 9122 Кбит/секШирина : 1920 пикселейВысота : 1080 пикселейСоотношение сторон : 16:9Частота кадров : 25,000 кадров/секСтандарт вещания : ComponentЦветовое пространство : YUVСубдискретизация насыщенности : 4:2:0Битовая глубина : 8 битТип развёртки : ЧересстрочнаяПорядок развёртки : Верхнее поле первоеБит/(Пиксели*Кадры) : 0.176Размер потока : 3,16 Гбайт (93%)Цветовой диапазон : LimitedОсновные цвета : BT.709Характеристики трансфера : BT.709Коэффициенты матрицы : BT.709
АудиоИдентификатор : 2603 (0xA2B)Идентификатор меню : 1 (0x1)Формат : MPEG AudioВерсия формата : Version 1Профиль формата : Layer 2Идентификатор кодека : 3Продолжительность : 49 м.Вид битрейта : ПостоянныйБитрейт : 192 Кбит/секКаналы : 2 каналаЧастота : 48,0 КГцМетод сжатия : С потерямиРазмер потока : 68,1 Мбайт (2%)Язык : Russian

Скриншоты

Релиз группы: RiperAM
[Профиль] [ЛС]
Показать сообщения:    

Текущее время: Сегодня 18:37

Часовой пояс: GMT



Вы не можете начинать темы
Вы не можете отвечать на сообщения
Вы не можете редактировать свои сообщения
Вы не можете удалять свои сообщения
Вы не можете голосовать в опросах
Вы не можете прикреплять файлы к сообщениям
Вы не можете скачивать файлы