Яма. Наши дни (2017) WEB-DLRip 1080p

 
Автор Сообщение

BOSS ®

Пол:

Стаж: 3 года 2 месяца

Сообщений: 8627

Откуда: ODESSA



Награды: 22 (Подробнее)

Top Keeper 4 (Количество: 1) Top Seeder 5 (Количество: 1) Mega Seeder 3 (Количество: 1)
Торрент-статистика

Создавать темы 10-Окт-2017 15:05

[Цитировать]

Информация о фильме
Название: Яма. Наши дни
Год выхода: 2017
Жанр: Драма, артхаус
Режиссер: Виталий Манюков
В ролях: Алексей Дьячков, Андрей Лихачёв, Виталий Манюков, Георгий Олейник, Дина Белоусова, Дмитрий Ушаков, Евгений Шмелев, Екатерина Макарова, Екатерина Малахит, Игнат Костровский, Инна Королёва, Инна Лясковец, Каролина Русалеева, Кирилл Крошман-Климов, Ксения Худоба, Никита Бесогонов, Ольга Вяземская, Станислав Колесниченко, Юлия Ковалевская, Юрий Огульник
О фильме:
Современное независимое кино из России, «Яма. Наши дни» посвящена теме, которую принято осторожно замалчивать – проституции и безвыходному положению женщин, оказавшихся в этой касте.Название отсылает зрителя к повести А.И. Куприна. Сама история также перекликается с мрачным сюжетом классика, однако действие фильма происходит в наши дни. Бордель в одном из центральных районов Москвы – квартира в жилом доме, в которой живут и работают проститутки. Фактически они себе не принадлежат – впервые продав свое тело за деньги, эти женщины догадываются – они никогда не будут помилованы общественным мнением, и, что ощущается гораздо более явно, они попали в кабалу владельцев борделя. Фильм рассказывает истории обитательниц публичного дома, раскрывая через них нравственную болезнь всего общества. Сможет ли настоящая, искренняя любовь победить мир лицемерия и круговой поруки?

Страна: Россия
Студия: кинокомпания "Артель"
Продолжительность: 01:38:43
Перевод: Не требуется
Файл
Кодек: h.264
Качество: WEB-DLRip 1080p
Видео: MPEG-4 AVC, 5120 Кбит/с, 1920x1080, 25,000 кадр/с
Звук: Русский (AC3, 2 ch, 256 Кбит/с)
Субтитры: Нет
Семпл

MI

General
Unique ID : 248999956552069385061493761223439793803 (0xBB53A5B202B207E39A7AA247CD71BE8B)
Complete name : D:uTorrentJama.Nashi.dni.2017.WEB-DLRip.1080p.MediaClub.mkv
Format : Matroska
Format version : Version 4 / Version 2
File size : 3.69 GiB
Duration : 1 h 38 min
Overall bit rate : 5 358 kb/s
Encoded date : UTC 2017-10-10 11:12:54
Writing application : mkvmerge v16.0.0 ('Protest') 64-bit
Writing library : libebml v1.3.5 + libmatroska v1.4.8
Video
ID : 1
Format : AVC
Format/Info : Advanced Video Codec
Format profile : High@L4
Format settings, CABAC : Yes
Format settings, ReFrames : 4 frames
Format settings, GOP : M=7, N=50
Codec ID : V_MPEG4/ISO/AVC
Duration : 1 h 38 min
Bit rate : 5 120 kb/s
Width : 1 920 pixels
Height : 1 080 pixels
Display aspect ratio : 16:9
Frame rate mode : Constant
Frame rate : 25.000 FPS
Color space : YUV
Chroma subsampling : 4:2:0
Bit depth : 8 bits
Scan type : Progressive
Bits/(Pixel*Frame) : 0.099
Stream size : 3.52 GiB (95%)
Title : WEB-DLRip by Silverok
Writing library : x264 core 142
Encoding settings : cabac=1 / ref=3 / deblock=1:0:0 / analyse=0x3:0x113 / me=hex / subme=7 / psy=1 / psy_rd=1.00:0.00 / mixed_ref=1 / me_range=16 / chroma_me=1 / trellis=1 / 8x8dct=1 / cqm=0 / deadzone=21,11 / fast_pskip=1 / chroma_qp_offset=-2 / threads=108 / lookahead_threads=8 / sliced_threads=0 / nr=0 / decimate=1 / interlaced=0 / bluray_compat=0 / constrained_intra=0 / bframes=6 / b_pyramid=2 / b_adapt=1 / b_bias=0 / direct=1 / weightb=1 / open_gop=0 / weightp=2 / keyint=50 / keyint_min=26 / scenecut=0 / intra_refresh=0 / rc_lookahead=40 / rc=2pass / mbtree=1 / bitrate=5120 / ratetol=1.0 / qcomp=0.60 / qpmin=0 / qpmax=69 / qpstep=4 / cplxblur=20.0 / qblur=0.5 / vbv_maxrate=7680 / vbv_bufsize=20480 / nal_hrd=none / filler=0 / ip_ratio=1.40 / aq=1:1.00
Default : Yes
Forced : No
Audio
ID : 2
Format : AC-3
Format/Info : Audio Coding 3
Format settings, Endianness : Big
Codec ID : A_AC3
Duration : 1 h 38 min
Bit rate mode : Constant
Bit rate : 256 kb/s
Channel(s) : 2 channels
Channel positions : Front: L R
Sampling rate : 48.0 kHz
Frame rate : 31.250 FPS (1536 spf)
Bit depth : 16 bits
Compression mode : Lossy
Stream size : 181 MiB (5%)
Language : Russian
Service kind : Complete Main
Default : Yes
Forced : No

Скриншоты

[Профиль] [ЛС]
Кто просматривает тему:

Форум Тема Автор Размер
Фильмы 2017 года Яма. Наши дни (2017) WEB-DLRip BOSS 1.46 GB
Фильмы (HD Rips | 720p, 1080p) Яма. Наши дни (2017) WEB-DLRip 720p BOSS 1.95 GB
Показать сообщения:    

Текущее время: Сегодня 05:04

Часовой пояс: GMT



Вы не можете начинать темы
Вы не можете отвечать на сообщения
Вы не можете редактировать свои сообщения
Вы не можете удалять свои сообщения
Вы не можете голосовать в опросах
Вы не можете прикреплять файлы к сообщениям
Вы не можете скачивать файлы