Ямакаси: Свобода в движении / Yamakasi: Les samouraïs des temps modernes (2001) WEB-DL 720p от HDClub | D, P2, A

 
Автор Сообщение

Russian Mafia ®

Пол:

Стаж: 1 год 8 месяцев

Сообщений: 4257



Награды: 10 (Подробнее)

Mega Seeder 3 (Количество: 1) Mega Seeder 1 (Количество: 1) Top Releaser 2 (Количество: 1)
Торрент-статистика

Создавать темы 13-Янв-2016 16:10

[Цитировать]

Информация о фильме
Название: Ямакаси: Свобода в движении
Оригинальное название: Yamakasi: Les samouraïs des temps modernes
Год выхода: 2001
Жанр: криминал, драма, боевик
Режиссер: Ариэль Зейтун, Жюльен Сери
В ролях: Чау Бель Дин, Уильямс Белль, Малик Диуф, Ян Нутра, Гилен Н’Губа-Бойеке, Шарль Перьер, Лоран Пьемонтези, Махер Камун, Бруно Флендер, Амель Джемель
О фильме:
Ямакаси - великолепная семерка молодых людей, которые, продолжая традиции таинственных «ниндзя», создали свое собственное искусство: искусство перемещения.
Они не боятся никаких опасностей и сохраняют невозмутимость в любых ситуациях. Они взбираются на небоскребы, совершают головокружительные прыжки с высоты, полеты в воздухе. У каждого своя особенность, свой «конек».
Молодежь восхищается ими и пытается им подражать. Но однажды происходит несчастный случай. Ямакаси должны действовать быстро, решительно и воспользоваться своим умением, чтобы спасти жизнь человека.

Страна: Франция
Студия: Canal+ [fr], EuropaCorp, Leeloo Productions
Продолжительность: 01:26:54
Перевод: Профессиональный (дублированный) R5 + Профессиональный (двухголосый, закадровый) Ren-TV + Авторский (одноголосый, закадровый) Сергей Кузнецов + Профессиональный (многоголосый, закадровый) Новый канал
Релиз:
Файл
Формат: Matroska
Видео: 1280@960x546 at 25.000 fps, MPEG-4 AVC, ~4100 kbps avg
Аудио#1: Russian: 48 kHz, AC3, 3/2 (L,C,R,l,r) + LFE ch, ~448.00 kbps avg |Дубляж, R5|
Аудио#2: Russian: 48 kHz, AC3, 2/0 (L,R) ch, ~192.00 kbps avg |Двухголосый закадровый, Ren-TV|
Аудио#3: Russian: 48 kHz, AC3, 3/2 (L,C,R,l,r) + LFE ch, ~384.00 kbps avg |Авторский, С.Кузнецов|
Аудио#4: Ukrainian: 48 kHz, AC3, 2/0 (L,R) ch, ~192.00 kbps avg |Многоголосый закадровый, Новый канал|
Аудио#5: French: 48 kHz, AC3, 3/2 (L,C,R,l,r) + LFE ch, ~448.00 kbps avg
Субтитры: Russian, English
***Сохранены оригинальные главы.
***Исходный WEB-DL взят из iTunes Russia.
***За исходную украинскую дорожку спасибо hurtom.

MI

Общее
Уникальный идентификатор : 173517221292217396071905774541753489642 (0x828A33842903A4579184262EB50B18EA)
Полное имя : Yamakasi.Les.samouraïs.des.temps.modernes.2001.720p.WEB-DL.3xRus.Ukr.Fre.HDCLUB.mkv
Формат : Matroska
Версия формата : Version 4 / Version 2
Размер файла : 3,61 Гбайт
Продолжительность : 1 ч. 26 м.
Общий поток : 5946 Кбит/сек
Название фильма : Release by spartanec163
Дата кодирования : UTC 2016-01-02 12:39:13
Программа кодирования : mkvmerge v8.5.2 ('Crosses') 64bit
Библиотека кодирования : libebml v1.3.3 + libmatroska v1.4.4
Видео
Идентификатор : 1
Формат : AVC
Формат/Информация : Advanced Video Codec
Профиль формата : Main@L3.1
Параметр CABAC формата : Нет
Параметр ReFrames формата : 2 кадра
Идентификатор кодека : V_MPEG4/ISO/AVC
Продолжительность : 1 ч. 26 м.
Битрейт : 4164 Кбит/сек
Ширина : 960 пикселей
Высота : 546 пикселей
Соотношение сторон : 2,35:1
Режим частоты кадров : Постоянный
Частота кадров : 25,000 кадров/сек
Цветовое пространство : YUV
Субдискретизация насыщенности : 4:2:0
Битовая глубина : 8 бит
Тип развёртки : Прогрессивная
Бит/(Пиксели*Кадры) : 0.318
Размер потока : 2,53 Гбайт (70%)
Заголовок : WEB-DL 720p
Язык : French
Default : Да
Forced : Нет
Цветовой диапазон : Limited
Основные цвета : BT.709
Характеристики трансфера : BT.709
Коэффициенты матрицы : BT.709
Аудио #1
Идентификатор : 2
Формат : AC-3
Формат/Информация : Audio Coding 3
Расширение режима : CM (complete main)
Параметр Endianness формата : Big
Идентификатор кодека : A_AC3
Продолжительность : 1 ч. 26 м.
Вид битрейта : Постоянный
Битрейт : 448 Кбит/сек
Каналы : 6 каналов
Расположение каналов : Front: L C R, Side: L R, LFE
Частота : 48,0 КГц
Метод сжатия : С потерями
Размер потока : 278 Мбайт (8%)
Заголовок : AC3 5.1 448Kbps (Дубляж)
Язык : Russian
Default : Да
Forced : Нет
Аудио #2
Идентификатор : 3
Формат : AC-3
Формат/Информация : Audio Coding 3
Расширение режима : CM (complete main)
Параметр Endianness формата : Big
Идентификатор кодека : A_AC3
Продолжительность : 1 ч. 26 м.
Вид битрейта : Постоянный
Битрейт : 192 Кбит/сек
Каналы : 2 канала
Расположение каналов : Front: L R
Частота : 48,0 КГц
Метод сжатия : С потерями
Размер потока : 119 Мбайт (3%)
Заголовок : AC3 2.0 192Kbps (Профессиональный, двухголосый - РЕН-ТВ)
Язык : Russian
Default : Нет
Forced : Нет
Аудио #3
Идентификатор : 4
Формат : AC-3
Формат/Информация : Audio Coding 3
Расширение режима : CM (complete main)
Параметр Endianness формата : Big
Идентификатор кодека : A_AC3
Продолжительность : 1 ч. 26 м.
Вид битрейта : Постоянный
Битрейт : 384 Кбит/сек
Каналы : 6 каналов
Расположение каналов : Front: L C R, Side: L R, LFE
Частота : 48,0 КГц
Метод сжатия : С потерями
Размер потока : 239 Мбайт (6%)
Заголовок : AC3 5.1 384Kbps (Авторский, одноголосый - Кузнецов)
Язык : Russian
Default : Нет
Forced : Нет
Аудио #4
Идентификатор : 5
Формат : AC-3
Формат/Информация : Audio Coding 3
Расширение режима : CM (complete main)
Параметр Endianness формата : Big
Идентификатор кодека : A_AC3
Продолжительность : 1 ч. 26 м.
Вид битрейта : Постоянный
Битрейт : 192 Кбит/сек
Каналы : 2 канала
Расположение каналов : Front: L R
Частота : 48,0 КГц
Метод сжатия : С потерями
Размер потока : 119 Мбайт (3%)
Заголовок : AC3 2.0 192Kbps (Профессиональный, многоголосый - Новый канал)
Язык : Ukrainian
Default : Нет
Forced : Нет
Аудио #5
Идентификатор : 6
Формат : AC-3
Формат/Информация : Audio Coding 3
Расширение режима : CM (complete main)
Параметр Endianness формата : Big
Идентификатор кодека : A_AC3
Продолжительность : 1 ч. 26 м.
Вид битрейта : Постоянный
Битрейт : 448 Кбит/сек
Каналы : 6 каналов
Расположение каналов : Front: L C R, Side: L R, LFE
Частота : 48,0 КГц
Метод сжатия : С потерями
Размер потока : 278 Мбайт (8%)
Заголовок : AC3 5.1 448Kbps (Оригинал)
Язык : French
Default : Нет
Forced : Нет
Текст #1
Идентификатор : 7
Формат : UTF-8
Идентификатор кодека : S_TEXT/UTF8
Идентификатор кодека/Информация : UTF-8 Plain Text
Язык : Russian
Default : Нет
Forced : Нет
Текст #2
Идентификатор : 8
Формат : UTF-8
Идентификатор кодека : S_TEXT/UTF8
Идентификатор кодека/Информация : UTF-8 Plain Text
Язык : English
Default : Нет
Forced : Нет
Меню
00:00:00.000 : en:1
00:04:21.000 : en:2
00:09:02.000 : en:3
00:15:04.000 : en:4
00:20:38.000 : en:5
00:25:51.000 : en:6
00:30:19.000 : en:7
00:35:17.000 : en:8
00:39:08.000 : en:9
00:45:48.000 : en:10
00:51:33.000 : en:11
00:55:35.000 : en:12
00:59:21.000 : en:13
01:05:15.000 : en:14
01:10:18.000 : en:15
01:15:18.000 : en:16

Скриншоты

[Профиль] [ЛС]
Показать сообщения:    

Текущее время: Сегодня 09:57

Часовой пояс: GMT



Вы не можете начинать темы
Вы не можете отвечать на сообщения
Вы не можете редактировать свои сообщения
Вы не можете удалять свои сообщения
Вы не можете голосовать в опросах
Вы не можете прикреплять файлы к сообщениям
Вы не можете скачивать файлы