Языческие святыни Изумрудного острова (спецвыпуск) / Sacred Sites - Ireland (Special) (Stephen Rooke) [2014 г., Документальный, история, исследования, HDTVRip-AVC 720p]

 
Автор Сообщение

skorpionN ®

Пол:

Стаж: 2 года 5 месяцев

Сообщений: 777



Награды: 4 (Подробнее)

Mega Seeder 1 (Количество: 1) Mega Seeder 3 (Количество: 1) Top Releaser 2 (Количество: 1)
Торрент-статистика

Создавать темы 28-Июл-2017 15:00

[Цитировать]

Языческие святыни Изумрудного острова (спецвыпуск) / Sacred Sites - Ireland (Special)
Год выпуска: 2014
Страна: Ирландия, Tile Films for Smithsonian Channel
Жанр: Документальный, история, исследования
Продолжительность: 00:45:10
Перевод: Профессиональный (двухголосый), переведено и озвучено на студии СВ-Дубль по заказу ГТРК Культура
Режиссер: Stephen Rooke
Описание: История Ирландии пропитана религией и тайной. Задолго до появления тех, кого мы называем ирландцами, за тысячи лет до кельтов на этой территории жили загадочные люди. Согласно своим верованиям они наделяли эти земли сверхъестественной силой. Сегодня эти сакральные места можно встретить повсеместно на территории Ирландии. Но какие секреты они хранят? Во что верили люди, построившие их? Какие таинственные ритуалы они проводили? И что заставило древних ирландцев изменить своим религиозным верованиям, покинуть святилища предков и начать поклоняться новым богам? Действительно ли Святой Патрик действовал в одиночку обращая ирландцев в христианство в V веке? Историки, астрономы и другие ученые считают, что ответы на эти и другие вопросы лежат в звездах. Откройте для себя ту роль, которую небесные события сыграли в ирландских религиозных убеждениях и верованиях, когда мы исследуем древние священные места.
Качество: HDTVRip-AVC
Формат: MKV
Видео кодек: H.264
Аудио кодек: AC3
Видео: 1280x720 29.970 fps 5000 Kbps
Аудио: AC3 2ch, 48kHz, 192 kbps

Скриншоты


MediaInfo:

Format : Matroska
Format version : Version 4 / Version 2
File size : 1.63 GiB
Duration : 45 min 9 s
Overall bit rate mode : Variable
Overall bit rate : 5 180 kb/s
Encoded date : UTC 2017-07-28 14:50:21
Writing application : mkvmerge v6.9.1 ('Blue Panther') 64bit built on Apr 18 2014 18:23:38
Writing library : libebml v1.3.0 + libmatroska v1.4.1
Video
ID : 1
Format : AVC
Format/Info : Advanced Video Codec
Format profile : High@L4.1
Format settings, CABAC : Yes
Format settings, ReFrames : 3 frames
Codec ID : V_MPEG4/ISO/AVC
Duration : 45 min 9 s
Bit rate mode : Variable
Bit rate : 5 000 kb/s
Maximum bit rate : 8 000 kb/s
Width : 1 280 pixels
Height : 720 pixels
Display aspect ratio : 16:9
Frame rate mode : Constant
Frame rate : 29.970 (30000/1001) FPS
Standard : NTSC
Color space : YUV
Chroma subsampling : 4:2:0
Bit depth : 8 bits
Scan type : Progressive
Bits/(Pixel*Frame) : 0.181
Stream size : 1.54 GiB (94%)
Writing library : x264 core 114
Encoding settings : cabac=1 / ref=3 / deblock=1:0:0 / analyse=0x3:0x113 / me=hex / subme=7 / psy=1 / psy_rd=1.00:0.00 / mixed_ref=1 / me_range=16 / chroma_me=1 / trellis=1 / 8x8dct=1 / cqm=2 / deadzone=21,11 / fast_pskip=1 / chroma_qp_offset=-4 / threads=6 / sliced_threads=0 / slices=1 / nr=0 / decimate=1 / interlaced=0 / constrained_intra=0 / bframes=3 / b_pyramid=0 / b_adapt=1 / b_bias=0 / direct=1 / weightb=1 / open_gop=0 / weightp=2 / keyint=250 / keyint_min=25 / scenecut=40 / intra_refresh=0 / rc_lookahead=40 / rc=2pass / mbtree=1 / bitrate=5000 / ratetol=1.0 / qcomp=0.60 / qpmin=5 / qpmax=69 / qpstep=4 / cplxblur=20.0 / qblur=0.5 / vbv_maxrate=8000 / vbv_bufsize=7995 / nal_hrd=vbr / ip_ratio=1.40 / aq=1:1.00
Default : Yes
Forced : No
Color range : Limited
Color primaries : BT.709
Transfer characteristics : BT.709
Matrix coefficients : BT.709
Audio
ID : 2
Format : AC-3
Format/Info : Audio Coding 3
Mode extension : CM (complete main)
Format settings, Endianness : Big
Codec ID : A_AC3
Duration : 45 min 9 s
Bit rate mode : Constant
Bit rate : 192 kb/s
Channel(s) : 2 channels
Channel positions : Front: L R
Sampling rate : 48.0 kHz
Frame rate : 31.250 FPS (1536 spf)
Compression mode : Lossy
Stream size : 62.0 MiB (4%)
Default : Yes
Forced : No
Святыни древнего Египта / Sacred Sites - Egypt [сезон 1 серия 4]
Языческие святыни Изумрудного острова (спецвыпуск) / Sacred Sites - Ireland (Special)
[Профиль] [ЛС]
Кто просматривает тему:

Показать сообщения:    

Текущее время: Сегодня 17:33

Часовой пояс: GMT



Вы не можете начинать темы
Вы не можете отвечать на сообщения
Вы не можете редактировать свои сообщения
Вы не можете удалять свои сообщения
Вы не можете голосовать в опросах
Вы не можете прикреплять файлы к сообщениям
Вы не можете скачивать файлы