Ягнёнок / Lamb (2015) WEB-DL 1080p | L

 
Автор Сообщение

BOSS ®

Пол:

Стаж: 2 года 1 месяц

Сообщений: 3744

Откуда: ODESSA



Награды: 20 (Подробнее)

Top Keeper 4 (Количество: 1) Top Seeder 3 (Количество: 1) Top Seeder 2 (Количество: 1)
Торрент-статистика

Создавать темы 27-Янв-2016 17:30

[Цитировать]

Информация о фильме
Название: Ягнёнок
Оригинальное название: Lamb
Год выхода: 2015
Жанр: драма
Режиссер: Росс Патридж
В ролях: Росс Патридж, Уна Лоуренс, Джесс Вейкслер, Том Бауэр, Скут МакНэри, Линдсей Палсифер, Дженнифер ЛаФлер, Джоэль Мюррей, Рон Буркхардт, Марк Келли
О фильме: Когда мужчина встречает молодую девушку на стоянке, он пытается помочь ей избежать мрачной судьбы, приобщая ее к красоте внешнего мира.

Выпущено: США
Продолжительность: 01:36:26
Озвучивание: Любительское (многоголосое) [Paradox & OMSKBIRD records]
Примечание: Релиз без рекламы.
Файл
Формат: MKV
Качество: WEB-DL 1080p
Видео: MPEG-4 AVC, 4438 kb/s, 1920x816
Аудио: Russian: AC3, 192 kb/s (2 ch) / English: AC3, 384 kb/s (6 ch)
Субтитры: English

MI

Format : Matroska
Format version : Version 2
File size : 3.48 GiB
Duration : 1h 37mn
Overall bit rate : 5 116 Kbps
Encoded date : UTC 2016-01-27 15:31:40
Writing application : mkvmerge v7.8.0 ('River Man') 32bit built on Apr 3 2015 12:11:22
Writing library : libebml v1.3.1 + libmatroska v1.4.2
Video
ID : 1
Format : AVC
Format/Info : Advanced Video Codec
Format profile : High@L4
Format settings, CABAC : Yes
Format settings, ReFrames : 5 frames
Codec ID : V_MPEG4/ISO/AVC
Duration : 1h 37mn
Bit rate : 4 438 Kbps
Width : 1 920 pixels
Height : 816 pixels
Display aspect ratio : 2.35:1
Frame rate mode : Constant
Frame rate : 23.976 fps
Color space : YUV
Chroma subsampling : 4:2:0
Bit depth : 8 bits
Scan type : Progressive
Bits/(Pixel*Frame) : 0.118
Stream size : 3.02 GiB (87%)
Language : English
Default : Yes
Forced : No
Color range : Limited
Color primaries : BT.709
Transfer characteristics : BT.709
Matrix coefficients : BT.709
Audio #1
ID : 2
Format : AC-3
Format/Info : Audio Coding 3
Mode extension : CM (complete main)
Format settings, Endianness : Big
Codec ID : A_AC3
Duration : 1h 37mn
Bit rate mode : Constant
Bit rate : 192 Kbps
Channel(s) : 2 channels
Channel positions : Front: L R
Sampling rate : 48.0 KHz
Bit depth : 16 bits
Compression mode : Lossy
Stream size : 134 MiB (4%)
Language : Russian
Default : Yes
Forced : No
Audio #2
ID : 3
Format : AC-3
Format/Info : Audio Coding 3
Mode extension : CM (complete main)
Format settings, Endianness : Big
Codec ID : A_AC3
Duration : 1h 37mn
Bit rate mode : Constant
Bit rate : 384 Kbps
Channel(s) : 6 channels
Channel positions : Front: L C R, Side: L R, LFE
Sampling rate : 48.0 KHz
Bit depth : 16 bits
Compression mode : Lossy
Stream size : 268 MiB (8%)
Language : English
Default : No
Forced : No
Text
ID : 4
Format : UTF-8
Codec ID : S_TEXT/UTF8
Codec ID/Info : UTF-8 Plain Text
Language : English
Default : No
Forced : No
Menu
00:00:00.000 : en:Walter and David Lamb
00:04:32.000 : en:Tommie lesson
00:11:00.000 : en:Linny career
00:13:40.000 : en:Let me buy you lunch
00:18:50.000 : en:Because it weird?
00:24:06.000 : en:The White Hotel
00:28:51.000 : en:Am I A Good Man
00:37:58.000 : en:Room in Your Heart
00:45:47.000 : en:Cabin Bound
00:49:22.000 : en:Fostero place for a girl.
00:53:15.000 : en:New light about you
00:56:59.000 : en:One sip off the top
01:00:15.000 : en:Gary paranoia
01:03:45.000 : en:RUN!
01:06:28.000 : en:Do you love her?
01:13:05.000 : en:Little Mountain Critter
01:14:37.000 : en:Emily Ghost
01:18:03.000 : en:Who is this?
01:20:35.000 : en:I ran away, but here I am now
01:24:00.000 : en:You will outgrow me
01:27:00.000 : en:Broken Windows

Скриншоты



[Профиль] [ЛС]
Кто просматривает тему:

Форум Тема Автор Размер
Фильмы 2015 года Ягнёнок / Lamb (2015) WEB-DLRip | L BOSS 1.45 GB
Показать сообщения:    

Текущее время: Сегодня 11:54

Часовой пояс: GMT



Вы не можете начинать темы
Вы не можете отвечать на сообщения
Вы не можете редактировать свои сообщения
Вы не можете удалять свои сообщения
Вы не можете голосовать в опросах
Вы не можете прикреплять файлы к сообщениям
Вы не можете скачивать файлы