Ю-571 / U-571 (2000) BDRip 720p от New-Team | D, A

 
Автор Сообщение

sergej644 ®

Пол:

Стаж: 4 года 11 месяцев

Сообщений: 6038

Откуда: Soviet Union



Награды: Нет

Торрент-статистика

Создавать темы 08-Фев-2015 19:03

[Цитировать]

--Ю-571 / U-571
Страна: Франция, США
Производство: Canal Plus Image International, Dino De Laurentiis Productions, Universal Pictures
Жанр: боевик, триллер, драма, военный
Год выпуска: 2000
Продолжительность: 01:55:59
Перевод: Профессиональный (полное дублирование), Авторский (одноголосый закадровый) Сергей Визгунов
Оригинальная аудиодорожка: английский
Cубтитры: русский, английский
Режиссер: Джонатан Мостоу / Jonathan Mostow
В ролях:
Мэттью МакКонахи, Билл Пэкстон, Харви Кейтель, Джон Бон Джови, Дэвид Кит, Томас Кречман, Джейк Уэбер, Джек Ноузуорти, Том Гайри, Уилл Эстес...
Роли дублировали:
Владимир Антоник, Олег Куценко, Виктор Петров, Александр Рахленко, Александр Груздев...
Описание:
1942 год. Немецкие подводные лодки хозяйничают в Атлантике. Радиоперехваты не дают союзникам ничего: сообщения противника не поддаются расшифровке. И тогда американские моряки получают секретное задание: захватить вражескую субмарину U-571 и находящуюся на ее борту шифровальную машину «Энигма». Захватить… и вернуться обратно!- -Исходник: BDRemux 1080p
Тип релиза: BDRip 720p
Контейнер: MKV
Видео: 1280x720 (16:9), 24 fps, H264 ~ 4112 kbps avg, 0.186 bit/pixel
Аудио: 48 kHz, Dolby Digital AC3 5.1, 384 kbps DUB
Аудио: 48 kHz, Dolby Digital AC3 5.1, 448 kbps Визгунов
Аудио: 48 kHz, Dolby Digital AC3 5.1, 448 kbps Английский
Субтитры: SoftSub (srt)
Раздача от:

MediaInfo

Общее
Полное имя : U-571.2000.BDRip720p_[New-team]_by_AVP_Studio.mkv
Формат : Matroska
Версия формата : Version 4 / Version 2
Размер файла : 4,37 Гбайт
Продолжительность : 1 ч. 55 м.
Общий поток : 5391 Кбит/сек
Название фильма : U-571.2000.BDRip720p_[New-team]_by_AVP_Studio
Дата кодирования : UTC 2014-09-22 08:22:59
Программа кодирования : mkvmerge v7.2.0 ('On Every Street') 64bit built on Sep 13 2014 15:52:10
Библиотека кодирования : libebml v1.3.0 + libmatroska v1.4.1
DURATION : 01:46:47.130000000
NUMBER_OF_FRAMES : 1055
NUMBER_OF_BYTES : 37543
_STATISTICS_WRITING_APP : mkvmerge v7.2.0 ('On Every Street') 64bit built on Sep 13 2014 15:52:10
_STATISTICS_WRITING_DATE_UTC : 2014-09-22 08:22:59
_STATISTICS_TAGS : BPS DURATION NUMBER_OF_FRAMES NUMBER_OF_BYTES
Видео
Идентификатор : 1
Формат : AVC
Формат/Информация : Advanced Video Codec
Профиль формата : High@L4.1
Параметр CABAC формата : Да
Параметр ReFrames формата : 6 кадров
Идентификатор кодека : V_MPEG4/ISO/AVC
Продолжительность : 1 ч. 55 м.
Битрейт : 4112 Кбит/сек
Ширина : 1280 пикселей
Высота : 720 пикселей
Соотношение сторон : 16:9
Режим частоты кадров : Постоянный
Частота кадров : 24,000 кадра/сек
Цветовое пространство : YUV
Субдискретизация насыщенности : 4:2:0
Битовая глубина : 8 бит
Тип развёртки : Прогрессивная
Бит/(Пиксели*Кадры) : 0.186
Размер потока : 3,24 Гбайт (74%)
Заголовок : Источник BDRemux
Библиотека кодирования : x264 core 138 r2356 a1d3d17
Настройки программы : cabac=1 / ref=6 / deblock=1:-3:-3 / analyse=0x3:0x133 / me=umh / subme=10 / psy=1 / psy_rd=1.00:0.05 / mixed_ref=1 / me_range=32 / chroma_me=1 / trellis=2 / 8x8dct=1 / cqm=0 / deadzone=21,11 / fast_pskip=0 / chroma_qp_offset=-3 / threads=6 / lookahead_threads=1 / sliced_threads=0 / nr=0 / decimate=0 / interlaced=0 / bluray_compat=0 / constrained_intra=0 / bframes=8 / b_pyramid=2 / b_adapt=2 / b_bias=0 / direct=3 / weightb=1 / open_gop=0 / weightp=2 / keyint=240 / keyint_min=24 / scenecut=40 / intra_refresh=0 / rc=2pass / mbtree=0 / bitrate=4112 / ratetol=1.0 / qcomp=0.60 / qpmin=0 / qpmax=69 / qpstep=4 / cplxblur=20.0 / qblur=0.5 / ip_ratio=1.40 / pb_ratio=1.30 / aq=1:1.00
Язык : English
Default : Да
Forced : Нет
Аудио #1
Идентификатор : 2
Формат : AC-3
Формат/Информация : Audio Coding 3
Расширение режима : CM (complete main)
Параметр Endianness формата : Big
Идентификатор кодека : A_AC3
Продолжительность : 1 ч. 55 м.
Вид битрейта : Постоянный
Битрейт : 384 Кбит/сек
Каналы : 6 каналов
Расположение каналов : Front: L C R, Side: L R, LFE
Частота : 48,0 КГц
Битовая глубина : 16 бит
Метод сжатия : С потерями
Размер потока : 319 Мбайт (7%)
Заголовок : Источник BDRemux DUB
Default : Да
Forced : Нет
Аудио #2
Идентификатор : 3
Формат : AC-3
Формат/Информация : Audio Coding 3
Расширение режима : CM (complete main)
Параметр Endianness формата : Big
Идентификатор кодека : A_AC3
Продолжительность : 1 ч. 55 м.
Вид битрейта : Постоянный
Битрейт : 448 Кбит/сек
Каналы : 6 каналов
Расположение каналов : Front: L C R, Side: L R, LFE
Частота : 48,0 КГц
Битовая глубина : 16 бит
Метод сжатия : С потерями
Размер потока : 372 Мбайт (8%)
Заголовок : Визгунов
Язык : Russian
Default : Нет
Forced : Нет
Аудио #3
Идентификатор : 4
Формат : AC-3
Формат/Информация : Audio Coding 3
Расширение режима : CM (complete main)
Параметр Endianness формата : Big
Идентификатор кодека : A_AC3
Продолжительность : 1 ч. 55 м.
Вид битрейта : Постоянный
Битрейт : 448 Кбит/сек
Каналы : 6 каналов
Расположение каналов : Front: L C R, Side: L R, LFE
Частота : 48,0 КГц
Битовая глубина : 16 бит
Метод сжатия : С потерями
Размер потока : 372 Мбайт (8%)
Заголовок : Источник BDRemux
Язык : English
Default : Нет
Forced : Нет
Текст #1
Идентификатор : 5
Формат : UTF-8
Идентификатор кодека : S_TEXT/UTF8
Идентификатор кодека/Информация : UTF-8 Plain Text
Заголовок : Источник BDRemux SoftSub (srt)
Язык : Russian
Default : Нет
Forced : Нет
Текст #2
Идентификатор : 6
Формат : UTF-8
Идентификатор кодека : S_TEXT/UTF8
Идентификатор кодека/Информация : UTF-8 Plain Text
Заголовок : Источник BDRemux SoftSub (srt)
Язык : English
Default : Нет
Forced : Нет
Меню
00:00:00.000 : ru:Chapter 01 (00:00:00)
00:08:42.708 : ru:Chapter 02 (00:08:42)
00:20:55.750 : ru:Chapter 03 (00:20:55)
00:32:20.916 : ru:Chapter 04 (00:32:20)
00:41:19.875 : ru:Chapter 05 (00:41:19)
00:50:21.041 : ru:Chapter 06 (00:50:21)
00:58:55.833 : ru:Chapter 07 (00:58:55)
01:07:05.000 : ru:Chapter 08 (01:07:05)
01:16:46.541 : ru:Chapter 09 (01:16:46)
01:27:20.125 : ru:Chapter 10 (01:27:20)
01:37:19.458 : ru:Chapter 11 (01:37:19)
01:49:31.000 : ru:Chapter 12 (01:49:31)

Скриншоты

[Профиль] [ЛС]
Кто просматривает тему:

Показать сообщения:    

Текущее время: Сегодня 22:10

Часовой пояс: GMT



Вы не можете начинать темы
Вы не можете отвечать на сообщения
Вы не можете редактировать свои сообщения
Вы не можете удалять свои сообщения
Вы не можете голосовать в опросах
Вы не можете прикреплять файлы к сообщениям
Вы не можете скачивать файлы