Юрий Яковлев. Последняя пристань (Олег Шиловский) [2015, Документальный, HDTV 1080i]

 
Автор Сообщение

TorrentFilm ®

Пол:

Стаж: 2 года

Сообщений: 7741



Награды: Нет

Торрент-статистика

Создавать темы 25-Мар-2015 00:01

[Цитировать]

Юрий Яковлев. Последняя пристань
Год выпуска: 2015
Страна: Россия
Студия: Первый канал
Жанр: Документальный
Продолжительность: 00:49:44
Перевод: Не требуется
Русские субтитры: нет
Режиссер: Олег Шиловский
Описание: Юрий Яковлев рассказывать о себе не любил. Несмотря на всенародную любовь, излишнего внимания к себе стеснялся. За последние годы он дал только одно большое телевизионное интервью о своей жизни. Мы записали его весной 2013 года, незадолго до юбилея артиста вместе с его внучкой Машей. Получилось не интервью даже, а домашние посиделки, разговор по душам с близким человеком. Время беспощадно. И в новогодние дни к беззаботной радости, которую мы привыкли испытывать, слыша классическое: "Какая гадость, эта ваша заливная рыба", уже навсегда добавилась грусть, и почему-то предательски слезятся глаза… ведь не родственник, а родной. Сам Юрий Васильевич признавался: "38 лет уже Новый год мы все встречаем с этим фильмом. 38 лет! Ну, как я к этому могу отнестись, ну? Сказать "Надоела Ирония судьбы!"? А я не могу сказать "Надоело!" Я люблю этот фильм!".
Доп. информация: Релиз -

Рип чистый. Без посторонних надписей. Выкладывается как есть.
Качество: HDTV 1080i
Контейнер: TS
Видео кодек: AVC
Аудио кодек: MP2
Видео: 1920x1080 (16:9) 25.000 fps ~ 13.5 Mbps, 0.260 bit/pixel
Аудио 1: MPEG Audio 48000Hz stereo 192 Кбит/сек 2 channels
Аудио 2: AC3, 6 channels, 48000Hz, 384 Кбит/сек

Скриншоты

MI

GeneralID : 1 (0x1)Complete name : H:\ВЫКЛАДКА\Юрий Яковлев. Последняя пристань (2015, Документальный, HDTV 1080i) (MYDIMKA).tsFormat : MPEG-TSFile size : 3.68 GiBDuration : 49mn 44sOverall bit rate mode : VariableOverall bit rate : 10.6 Mbps
VideoID : 1603 (0x643)Menu ID : 603 (0x25B)Format : AVCFormat/Info : Advanced Video CodecFormat profile : High@L4.0Format settings, CABAC : YesFormat settings, ReFrames : 3 framesCodec ID : 27Duration : 49mn 44sBit rate : 9 475 KbpsWidth : 1 920 pixelsHeight : 1 080 pixelsDisplay aspect ratio : 16:9Frame rate : 25.000 fpsStandard : ComponentColor space : YUVChroma subsampling : 4:2:0Bit depth : 8 bitsScan type : InterlacedScan order : Top Field FirstBits/(Pixel*Frame) : 0.183Stream size : 3.29 GiB (90%)Color primaries : BT.709Transfer characteristics : BT.709Matrix coefficients : BT.709
Audio #1ID : 2603 (0xA2B)Menu ID : 603 (0x25B)Format : AC-3Format/Info : Audio Coding 3Mode extension : CM (complete main)Format settings, Endianness : BigCodec ID : 6Duration : 49mn 44sBit rate mode : ConstantBit rate : 384 KbpsChannel(s) : 6 channelsChannel positions : Front: L C R, Side: L R, LFESampling rate : 48.0 KHzBit depth : 16 bitsCompression mode : LossyStream size : 137 MiB (4%)Language : Russian
Audio #2ID : 2604 (0xA2C)Menu ID : 603 (0x25B)Format : MPEG AudioFormat version : Version 1Format profile : Layer 2Codec ID : 3Duration : 49mn 44sBit rate mode : ConstantBit rate : 192 KbpsChannel(s) : 2 channelsSampling rate : 48.0 KHzCompression mode : LossyStream size : 68.3 MiB (2%)Language : Russian
[Профиль] [ЛС]
Кто просматривает тему:

Показать сообщения:    

Текущее время: Сегодня 22:10

Часовой пояс: GMT



Вы не можете начинать темы
Вы не можете отвечать на сообщения
Вы не можете редактировать свои сообщения
Вы не можете удалять свои сообщения
Вы не можете голосовать в опросах
Вы не можете прикреплять файлы к сообщениям
Вы не можете скачивать файлы