Юрий Соломин. Не Люблю Фанфары (Гурам Кварацхелия) [2015, Документальный, HDTV 720p]

 
Автор Сообщение

TorrentFilm ®

Пол:

Стаж: 1 год 11 месяцев

Сообщений: 7741



Награды: Нет

Торрент-статистика

Создавать темы 05-Июл-2015 00:09

[Цитировать]

Юрий Соломин. Не Люблю Фанфары- Год выпуска: 2015
Страна: Россия
Студия: Первый Канал HD | Красный Квадрат
Жанр: Документальный
Продолжительность: 0:51:58
Продюсер: Илья Кривицкий
Автор сценария: Светлана Карпекова
Режиссер: Гурам Кварацхелия
Ведущий: Егор Бероев-Описание: Соломин проработал в Малом театре больше полувека, из них более 25 лет – художественным руководителем театра. Юрий Соломин запомнился зрителям в первую очередь ролями в кино, самые известные из которых - "Обыкновенное чудо", "Мелодии белой ночи", "ТАСС уполномочен заявить...", "Дерсу Узала", "Московская сага" и другие.-Автор рипа: lrn
Автор записи: riper.am
Сэмпл: sendfile-Тип релиза: HDTV 720p
Контейнер: MKV
Видео: 1280x720 (16:9), 25,000 fps, H264, ~4000 kbps avg, ~0.174 bit/pixel
Аудио: 48 kHz, AC3 Dolby Digital, 2/0 (L,R) ch, ~192.00 kbps avg-

MediaInfo

GeneralUnique ID : 254162658164968124129927661248353612767 (0xBF35F2897E8C1D1F8843EF36A2E733DF)Complete name : E:\uTorrent.Temp\Temp\Yuriy.Solomin.Ne.Luublu.Fanfari.2015.HDTV.720p.x264-lrn.mkvFormat : MatroskaFormat version : Version 4 / Version 2File size : 1.52 GiBDuration : 51mn 58sOverall bit rate : 4 193 KbpsMovie name : Yuriy.Solomin.Ne.Luublu.Fanfari.2015.HDTV.720p.x264-lrnEncoded date : UTC 2010-02-22 21:41:31Writing application : mkvmerge v5.9.0 ('On The Loose') built on Dec 9 2012 15:37:01Writing library : libebml v1.3.0 + libmatroska v1.4.0DURATION : 00:51:58.560000000NUMBER_OF_FRAMES : 77964NUMBER_OF_BYTES : 1559012307_STATISTICS_WRITING_APP : mkvmerge v7.7.0 ('Six Voices') 32bit built on Feb 28 2015 23:23:00_STATISTICS_WRITING_DATE_UT : 2015-06-20 14:34:07_STATISTICS_TAGS : BPS DURATION NUMBER_OF_FRAMES NUMBER_OF_BYTES
VideoID : 1Format : AVCFormat/Info : Advanced Video CodecFormat profile : High@L4.1Format settings, CABAC : YesFormat settings, ReFrames : 8 framesCodec ID : V_MPEG4/ISO/AVCDuration : 51mn 58sBit rate : 4 000 KbpsWidth : 1 280 pixelsHeight : 720 pixelsDisplay aspect ratio : 16:9Frame rate mode : ConstantFrame rate : 25.000 fpsColor space : YUVChroma subsampling : 4:2:0Bit depth : 8 bitsScan type : ProgressiveBits/(Pixel*Frame) : 0.174Stream size : 1.42 GiB (93%)Writing library : x264 core 146 r2538 121396cEncoding settings : cabac=1 / ref=8 / deblock=1:-3:-3 / analyse=0x3:0x133 / me=umh / subme=9 / psy=1 / psy_rd=1.00:0.00 / mixed_ref=1 / me_range=32 / chroma_me=1 / trellis=2 / 8x8dct=1 / cqm=0 / deadzone=21,11 / fast_pskip=1 / chroma_qp_offset=-2 / threads=12 / lookahead_threads=2 / sliced_threads=0 / nr=0 / decimate=1 / interlaced=0 / bluray_compat=0 / constrained_intra=0 / bframes=8 / b_pyramid=2 / b_adapt=2 / b_bias=0 / direct=3 / weightb=1 / open_gop=0 / weightp=2 / keyint=250 / keyint_min=25 / scenecut=40 / intra_refresh=0 / rc_lookahead=50 / rc=2pass / mbtree=1 / bitrate=4000 / ratetol=1.0 / qcomp=0.60 / qpmin=0 / qpmax=69 / qpstep=4 / cplxblur=20.0 / qblur=0.5 / vbv_maxrate=62500 / vbv_bufsize=78125 / nal_hrd=none / filler=0 / ip_ratio=1.40 / aq=1:1.00Default : YesForced : No
AudioID : 2Format : AC-3Format/Info : Audio Coding 3Mode extension : CM (complete main)Format settings, Endianness : BigCodec ID : A_AC3Duration : 51mn 58sBit rate mode : ConstantBit rate : 192 KbpsChannel(s) : 2 channelsChannel positions : Front: L RSampling rate : 48.0 KHzCompression mode : LossyStream size : 71.4 MiB (5%)Language : RussianDefault : YesForced : No

x264 log

raw [info]: 1280x720p 1:1 @ 25/1 fps (cfr)x264 [info]: using SAR=1/1x264 [info]: using cpu capabilities: MMX2 SSE2Fast SSSE3 SSE4.2 AVXx264 [info]: profile High, level 4.1x264 [info]: frame I:531 Avg QP:11.90 size: 99531x264 [info]: frame P:20731 Avg QP:15.47 size: 41408x264 [info]: frame B:56702 Avg QP:18.22 size: 11424x264 [info]: consecutive B-frames: 3.3% 4.7% 8.6% 55.6% 11.0% 13.9% 1.6% 1.2% 0.1%x264 [info]: mb I I16..4: 12.8% 72.4% 14.8%x264 [info]: mb P I16..4: 2.4% 14.2% 1.4% P16..4: 36.8% 22.0% 12.4% 0.6% 0.2% skip: 9.9%x264 [info]: mb B I16..4: 0.3% 1.4% 0.1% B16..8: 36.6% 10.7% 2.1% direct: 8.1% skip:40.7% L0:41.6% L1:43.4% BI:15.0%x264 [info]: 8x8 transform intra:77.6% inter:62.4%x264 [info]: direct mvs spatial:98.5% temporal:1.5%x264 [info]: coded y,uvDC,uvAC intra: 72.1% 41.2% 26.2% inter: 26.5% 14.1% 1.6%x264 [info]: i16 v,h,dc,p: 42% 18% 6% 35%x264 [info]: i8 v,h,dc,ddl,ddr,vr,hd,vl,hu: 16% 12% 11% 7% 10% 12% 11% 11% 11%x264 [info]: i4 v,h,dc,ddl,ddr,vr,hd,vl,hu: 15% 11% 7% 8% 13% 13% 12% 10% 11%x264 [info]: i8c dc,h,v,p: 66% 16% 12% 7%x264 [info]: Weighted P-Frames: Y:8.4% UV:1.9%x264 [info]: ref P L0: 51.4% 11.5% 16.1% 6.2% 4.9% 3.7% 3.3% 2.3% 0.5% 0.0%x264 [info]: ref B L0: 80.0% 10.2% 4.2% 2.3% 1.7% 1.1% 0.6%x264 [info]: ref B L1: 95.1% 4.9%x264 [info]: kb/s:3999.31encoded 77964 frames, 13.96 fps, 3999.31 kb/s

Скриншоты

-
[Профиль] [ЛС]
Кто просматривает тему:

Показать сообщения:    

Текущее время: Сегодня 11:57

Часовой пояс: GMT



Вы не можете начинать темы
Вы не можете отвечать на сообщения
Вы не можете редактировать свои сообщения
Вы не можете удалять свои сообщения
Вы не можете голосовать в опросах
Вы не можете прикреплять файлы к сообщениям
Вы не можете скачивать файлы