Юрий Соломин. Не Люблю Фанфары (Гурам Кварацхелия) [2015, Документальный, HDTV 1080i]

 
Автор Сообщение

TorrentFilm ®

Пол:

Стаж: 2 года

Сообщений: 7741



Награды: Нет

Торрент-статистика

Создавать темы 28-Июн-2015 00:08

[Цитировать]

Юрий Соломин. Не Люблю Фанфары
Дата выхода: 20/06/2015
Страна: Россия
Студия: Красный Квадрат
Жанр: Документальный
Продолжительность: 00:51:59
Продюсер: Илья Кривицкий
Автор сценария: Светлана Карпекова
Режиссер: Гурам Кварацхелия
Ведущий: Егор Бероев
Описание: Фильм к юбилею известного и любимого многими поколениями зрителей народного артиста СССР Юрия Соломина, который в 2015 году празднует 80-летие.
Соломин проработал в Малом театре больше полувека, из них более 25 лет – художественным руководителем театра. Юрий Соломин запомнился зрителям в первую очередь ролями в кино, самые известные из которых - "Обыкновенное чудо", "Мелодии белой ночи", "ТАСС уполномочен заявить...", "Дерсу Узала", "Московская сага" и другие.
Но есть один фильм, с которого началась популярность актёра и который до сих пор помнят и любят зрители. В 1970-м году на экраны вышел пятисерийный телевизионный фильм "Адъютант его превосходительства", где Юрий Соломин сыграл разведчика Павла Кольцова. В год своего юбилея Юрий Соломин празднует и юбилей своего самого известного киногероя. За эту роль Соломин был удостоен Государственной премии и звания "Заслуженный артист РСФСР". Изначально практически всех исполнителей главных ролей долго не утверждал худсовет, а Юрий Соломин проходил пробы шесть раз.

Далее

Более того, фильм вообще мог не выйти на экраны. Дело в том, что худсовет картину не принял - слишком непохожими на привычные образы белогвардейских офицеров в советском кино выглядели персонажи фильма. Режиссёра Евгения Ташкова упрекали в том, что враги советской власти получились чересчур человечными, умными и даже вызывающими симпатию. Поэтому фильм отправили на полку, и неизвестно, сколько бы он там пролежал, если бы Ташков не решился показать "Адъютанта его превосходительства" Семену Цвигуну - заместителю председателя КГБ Юрия Андропова. Цвигуну фильм понравился, и в апреле 1970 года он вышел на телевизионный экран, став очень популярным.
Пять вечеров зрители следили за перипетиями опасной работы разведчика в тылу белых войск. По словам автора сценария фильма, писателя и кинодраматурга Игоря Болгарина, в Москве по вечерам пустели улицы, а Юрию Соломину приходили тысячи писем!
О том, как снимался фильм, что происходило на съёмочной площадке, о самом Юрии Соломине рассказывают актеры Валентин Смирнитский, Людмила Чурсина, Андрей Ташков, исполнитель роли Юры Львова Александр Милокостый и исполнительница роли Татьяны Щукиной Татьяна Иваницкая.
Параллельной линией в фильме станет своего рода расследование о прототипе главного героя фильма – разведчика Павла Кольцова. Одна из самых распространенных версий – прототипом Кольцова был личный адъютант командующего Добровольческой армией генерал-лейтенанты Май-Маевского Павел Макаров. Однако до сих пор в истории осталось немало "тёмных пятен", о которых до сих пор спорят историки. Мы расскажем о запутанной и драматической судьбе Павла Макарова и других людях, которые в той или иной мере послужили прототипами героев "Адъютанта его превосходительства".
Тип релиза: HDTV 1080i
Контейнер: TS
Видео: MPEG4 Video (H264) 1920x1080 25.00fps 7609kbps
Аудио: MPEG Audio 48000Hz stereo 192kbps

MediaInfo

ОбщееИдентификатор : 1 (0x1)Полное имя : *:\Юрий Соломин.Не Люблю Фанфары.HDTV.1080i.tsФормат : MPEG-TSРазмер файла : 2,98 ГбайтПродолжительность : 51 м.Режим общего битрейта : ПеременныйОбщий поток : 8208 Кбит/сек
ВидеоИдентификатор : 1603 (0x643)Идентификатор меню : 1 (0x1)Формат : AVCФормат/Информация : Advanced Video CodecПрофиль формата : High@L4Параметр CABAC формата : ДаПараметр ReFrames формата : 3 кадраИдентификатор кодека : 27Продолжительность : 51 м.Битрейт : 7609 Кбит/секШирина : 1920 пикселейВысота : 1080 пикселейСоотношение сторон : 16:9Частота кадров : 25,000 кадров/секСтандарт вещания : ComponentЦветовое пространство : YUVСубдискретизация насыщенности : 4:2:0Битовая глубина : 8 битТип развёртки : ЧересстрочнаяПорядок развёртки : Верхнее поле первоеБит/(Пиксели*Кадры) : 0.147Размер потока : 2,76 Гбайт (93%)Цветовой диапазон : LimitedОсновные цвета : BT.709Характеристики трансфера : BT.709Коэффициенты матрицы : BT.709
АудиоИдентификатор : 2603 (0xA2B)Идентификатор меню : 1 (0x1)Формат : MPEG AudioВерсия формата : Version 1Профиль формата : Layer 2Идентификатор кодека : 3Продолжительность : 51 м.Вид битрейта : ПостоянныйБитрейт : 192 Кбит/секКаналы : 2 каналаЧастота : 48,0 КГцМетод сжатия : С потерямиРазмер потока : 71,4 Мбайт (2%)Язык : Russian
[Профиль] [ЛС]
Кто просматривает тему:

Показать сообщения:    

Текущее время: Сегодня 20:10

Часовой пояс: GMT



Вы не можете начинать темы
Вы не можете отвечать на сообщения
Вы не можете редактировать свои сообщения
Вы не можете удалять свои сообщения
Вы не можете голосовать в опросах
Вы не можете прикреплять файлы к сообщениям
Вы не можете скачивать файлы