Юрий Гагарин. Семь Лет Одиночества (Алексей Китайцев) [2014, Документальный, HDTV 720p]

 
Автор Сообщение

TorrentFilm ®

Пол:

Стаж: 2 года

Сообщений: 7741



Награды: Нет

Торрент-статистика

Создавать темы 12-Апр-2015 00:04

[Цитировать]

Юрий Гагарин. Семь Лет Одиночества- Год выпуска: 2014
Страна: Россия
Канал: Россия HD
Жанр: Документальный
Продолжительность: 0:44:29
Авторы: Алексей Китайцев, Алексей Самолетов
Режиссер: Алексей Китайцев-Описание: "Когда-то еще в детстве прочитал слова В.П. Чкалова: "Если быть, то быть первым". Вот я и стараюсь им быть и буду до конца. Хочу, Валечка, посвятить этот полет людям нового общества…". Это письмо Юрий Гагарин написал 10 апреля 1961 года. Менее чем за сутки до своего полета.-Автор рипа: lrn
Автор записи: Alexin29
Сэмпл: sendfile-Тип релиза: HDTV 720p
Контейнер: MKV
Видео: 1280x720 (16:9), 25,000 fps, H264, ~4000 kbps avg, ~0.174 bit/pixel
Аудио: 48 kHz, AC3 Dolby Digital, 2/0 (L,R) ch, ~192.00 kbps avg-

MediaInfo

GeneralUnique ID : 180317230252397139412836893960235348888 (0x87A7D5D7BDDB32E6AC5DFDBF414F7398)Complete name : E:\uTorrent.Temp\Temp\Yuriy.Gagarin.Sem.Let.Odinochestva.2014.HDTV.720p.x264-lrn.mkvFormat : MatroskaFormat version : Version 4 / Version 2File size : 1.30 GiBDuration : 44mn 29sOverall bit rate : 4 194 KbpsMovie name : Yuriy.Gagarin.Sem.Let.Odinochestva.2014.HDTV.720p.x264-lrnEncoded date : UTC 2010-02-22 21:41:31Writing application : mkvmerge v5.9.0 ('On The Loose') built on Dec 9 2012 15:37:01Writing library : libebml v1.3.0 + libmatroska v1.4.0
VideoID : 1Format : AVCFormat/Info : Advanced Video CodecFormat profile : High@L4.1Format settings, CABAC : YesFormat settings, ReFrames : 8 framesCodec ID : V_MPEG4/ISO/AVCDuration : 44mn 30sBit rate : 4 000 KbpsWidth : 1 280 pixelsHeight : 720 pixelsDisplay aspect ratio : 16:9Frame rate mode : ConstantFrame rate : 25.000 fpsColor space : YUVChroma subsampling : 4:2:0Bit depth : 8 bitsScan type : ProgressiveBits/(Pixel*Frame) : 0.174Stream size : 1.22 GiB (93%)Writing library : x264 core 142 r2479 dd79a61Encoding settings : cabac=1 / ref=8 / deblock=1:-3:-3 / analyse=0x3:0x113 / me=umh / subme=9 / psy=1 / psy_rd=1.00:0.00 / mixed_ref=1 / me_range=32 / chroma_me=1 / trellis=2 / 8x8dct=1 / cqm=0 / deadzone=21,11 / fast_pskip=1 / chroma_qp_offset=-4 / threads=12 / lookahead_threads=2 / sliced_threads=0 / nr=0 / decimate=1 / interlaced=0 / bluray_compat=0 / constrained_intra=0 / bframes=8 / b_pyramid=2 / b_adapt=2 / b_bias=0 / direct=1 / weightb=1 / open_gop=0 / weightp=2 / keyint=250 / keyint_min=25 / scenecut=40 / intra_refresh=0 / rc_lookahead=50 / rc=2pass / mbtree=1 / bitrate=4000 / ratetol=1.0 / qcomp=0.60 / qpmin=0 / qpmax=69 / qpstep=4 / cplxblur=20.0 / qblur=0.5 / vbv_maxrate=62500 / vbv_bufsize=78125 / nal_hrd=none / filler=0 / ip_ratio=1.40 / aq=1:1.00Default : YesForced : NoColor primaries : BT.709Transfer characteristics : BT.709Matrix coefficients : BT.709Color range : Limited
AudioID : 2Format : AC-3Format/Info : Audio Coding 3Mode extension : CM (complete main)Format settings, Endianness : BigCodec ID : A_AC3Duration : 44mn 29sBit rate mode : ConstantBit rate : 192 KbpsChannel(s) : 2 channelsChannel positions : Front: L RSampling rate : 48.0 KHzBit depth : 16 bitsCompression mode : LossyDelay relative to video : 200msStream size : 61.1 MiB (5%)Language : RussianDefault : YesForced : No

x264 log

x264 [info]: using SAR=4311/4304x264 [info]: using cpu capabilities: MMX2 SSE2Fast SSSE3 SSE4.2 AVXx264 [info]: profile High, level 4.1x264 [info]: frame I:476 Avg QP:15.84 size: 71953x264 [info]: frame P:15948 Avg QP:18.47 size: 33450x264 [info]: frame B:50320 Avg QP:20.11 size: 15247x264 [info]: consecutive B-frames: 2.2% 3.6% 7.2% 43.6% 14.7% 16.8% 5.5% 5.0% 1.4%x264 [info]: mb I I16..4: 6.4% 82.7% 11.0%x264 [info]: mb P I16..4: 5.0% 22.0% 1.6% P16..4: 39.0% 20.3% 8.0% 0.0% 0.0% skip: 4.1%x264 [info]: mb B I16..4: 1.1% 3.6% 0.2% B16..8: 39.3% 15.0% 2.6% direct:13.3% skip:24.9% L0:47.4% L1:41.8% BI:10.8%x264 [info]: 8x8 transform intra:76.0% inter:73.4%x264 [info]: coded y,uvDC,uvAC intra: 68.9% 61.1% 34.9% inter: 33.0% 31.9% 2.4%x264 [info]: i16 v,h,dc,p: 54% 15% 7% 24%x264 [info]: i8 v,h,dc,ddl,ddr,vr,hd,vl,hu: 16% 11% 8% 7% 10% 13% 11% 12% 12%x264 [info]: i4 v,h,dc,ddl,ddr,vr,hd,vl,hu: 16% 10% 7% 7% 13% 14% 13% 10% 10%x264 [info]: i8c dc,h,v,p: 52% 21% 18% 9%x264 [info]: Weighted P-Frames: Y:12.5% UV:2.7%x264 [info]: ref P L0: 44.7% 11.2% 16.6% 7.8% 6.0% 5.1% 4.4% 3.3% 0.8% 0.0%x264 [info]: ref B L0: 70.3% 12.7% 7.0% 3.9% 3.3% 1.9% 0.9%x264 [info]: ref B L1: 91.9% 8.1%x264 [info]: kb/s:4000.11

Скриншоты

-
[Профиль] [ЛС]
Кто просматривает тему:

Показать сообщения:    

Текущее время: Сегодня 11:05

Часовой пояс: GMT



Вы не можете начинать темы
Вы не можете отвечать на сообщения
Вы не можете редактировать свои сообщения
Вы не можете удалять свои сообщения
Вы не можете голосовать в опросах
Вы не можете прикреплять файлы к сообщениям
Вы не можете скачивать файлы