(Pop, Retro)Юрий Антонов - Зеркало (1996) [FLAC, (Image+cue), Lossless]

 
Автор Сообщение

sergej644 ®

Пол:

Стаж: 4 года 11 месяцев

Сообщений: 6040

Откуда: Soviet Union



Награды: Нет

Торрент-статистика

Создавать темы 11-Авг-2014 22:51

[Цитировать]

-Юрий Антонов - Зеркало (1996)- Год: 1996
Жанр: Pop, Retro
Страна-производитель диска: Россия
Издатель (лейбл): Classic Company
Номер по каталогу: CC-98-26
Продолжительность: 00:47:06
Кодек: FLAC
Битрейт: Lossless
Тип рипа: image+.cue
Источник (релизер): bw
Наличие сканов в содержимом раздачи: да
Треклист:
01. Зеркало
02. Не забывай
03. Двадцать лет спустя
04. Вот как бывает
05. Мое богатство
06. Я иду тебе навстречу
07. Снегири
08. Крыша дома твоего
09. Анастасия
10. Завтра
11. Тебе
12. Белый теплоход
13. А где-то ...
14. Море

Отчёт ЕАС:

Exact Audio Copy V1.0 beta 3 from 29. August 2011
Отчёт EAC об извлечении, выполненном 14. июля 2013, 18:36
Юрий Антонов / Зеркало
Дисковод: ASUS    DRW-20B1LT   Adapter: 1  ID: 0
Режим чтения                 : Достоверность
Использование точного потока : Да
Отключение кэша аудио        : Да
Использование указателей C2  : Нет
Коррекция смещения при чтении                     : 6
Способность читать области Lead-in и Lead-out     : Нет
Заполнение пропущенных сэмплов тишиной            : Да
Удаление блоков с тишиной в начале и конце        : Нет
При вычислениях CRC использовались нулевые сэмплы : Да
Интерфейс                                         : Встроенный Win32-интерфейс для Win NT/2000
Выходной формат          : Пользовательский кодировщик
Выбранный битрейт        : 128 kBit/s
Качество                 : Высокий
Добавление ID3-тега      : Нет
Утилита сжатия           : C:\Program Files\Exact Audio Copy\Flac\flac.exe
Дополнительные параметры :  -V -8 -T "Date=%year%" -T "Genre=%genre%" %source%
TOC извлечённого CD
     Трек |   Старт  | Длительность | Начальный сектор | Конечный сектор
    ---------------------------------------------------------------------
       1  |  0:00.10 |    3:39.10   |          10      |      16444
       2  |  3:39.20 |    3:53.50   |       16445      |      33969
       3  |  7:32.70 |    3:38.70   |       33970      |      50389
       4  | 11:11.65 |    3:24.05   |       50390      |      65694
       5  | 14:35.70 |    2:36.60   |       65695      |      77454
       6  | 17:12.55 |    3:49.23   |       77455      |      94652
       7  | 21:02.03 |    2:37.20   |       94653      |     106447
       8  | 23:39.23 |    2:38.62   |      106448      |     118359
       9  | 26:18.10 |    2:57.18   |      118360      |     131652
      10  | 29:15.28 |    3:38.17   |      131653      |     148019
      11  | 32:53.45 |    4:09.25   |      148020      |     166719
      12  | 37:02.70 |    3:23.03   |      166720      |     181947
      13  | 40:25.73 |    3:57.72   |      181948      |     199794
      14  | 44:23.70 |    2:42.70   |      199795      |     212014
Характеристики диапазона извлечения и сообщения об ошибках
Выбранный диапазон
     Имя файла C:\Documents and Settings\Владелец\Мои документы\Моя музыка\Новая папка (6)\Юрий Антонов - Зеркало.wav
     Пиковый уровень 96.6 %
     Скорость извлечения 8.0 X
     Качество диапазона 100.0 %
     CRC теста C03E72CF
     CRC копии C03E72CF
     Копирование... OK
Ошибок не произошло
AccurateRip: сводка
Трек  1  : извлечено точно (доверие 2)  [D760847A]  (AR v1)
Трек  2  : извлечено точно (доверие 2)  [0231B2F3]  (AR v1)
Трек  3  : извлечено точно (доверие 2)  [FF4DFFBA]  (AR v1)
Трек  4  : извлечено точно (доверие 2)  [8E9F16B8]  (AR v1)
Трек  5  : извлечено точно (доверие 2)  [3839D4F8]  (AR v1)
Трек  6  : извлечено точно (доверие 2)  [9F44EBC5]  (AR v1)
Трек  7  : извлечено точно (доверие 2)  [3DB4B63A]  (AR v1)
Трек  8  : извлечено точно (доверие 2)  [2DB9DB20]  (AR v1)
Трек  9  : извлечено точно (доверие 2)  [CB567859]  (AR v1)
Трек 10  : извлечено точно (доверие 2)  [F2CE6A4D]  (AR v1)
Трек 11  : извлечено точно (доверие 2)  [2D89B61E]  (AR v1)
Трек 12  : извлечено точно (доверие 2)  [32CEA92F]  (AR v1)
Трек 13  : извлечено точно (доверие 2)  [75946B8F]  (AR v1)
Трек 14  : извлечено точно (доверие 2)  [6F2C28DB]  (AR v1)
Все треки извлечены точно
Конец отчёта
==== Контрольная сумма отчёта 11B98402D8A819C3BE3FBC4444442060B0A35F81036FD7301A5011E89995CE9A ====

Отчёт auCDtect Task manager:

-----------------------
DON'T MODIFY THIS FILE
-----------------------
PERFORMER: auCDtect Task Manager, ver. 1.5.1RC6 build 1.5.1.7
Copyright (c) 2008-2010 y-soft. All rights reserved
http://y-soft.org
ANALYZER: auCDtect: CD records authenticity detector, version 0.8.2
Copyright (c) 2004 Oleg Berngardt. All rights reserved.
Copyright (c) 2004 Alexander Djourik. All rights reserved.
FILE: Юрий Антонов - Зеркало.flac
  Size: 331011892 Hash: E157DE99E492FF66262D756ED8B8C985 Accuracy: -m0
  Conclusion: CDDA 100%
  Signature: 46E1667DBB9C2CC34A1F478F327EEC252756C1BE

Содержание индексной карты (.CUE)

REM GENRE "Pop Retro"
REM DATE 1996
REM DISCID BB0B0A0E
REM COMMENT "ExactAudioCopy v1.0b3"
PERFORMER "Юрий Антонов"
TITLE "Зеркало"
FILE "Юрий Антонов - Зеркало.flac" WAVE
  TRACK 01 AUDIO
    TITLE "Зеркало"
    PERFORMER "Юрий Антонов"
    INDEX 00 00:00:00
    INDEX 01 00:00:10
  TRACK 02 AUDIO
    TITLE "Не забывай"
    PERFORMER "Юрий Антонов"
    INDEX 00 03:36:65
    INDEX 01 03:39:20
  TRACK 03 AUDIO
    TITLE "Двадцать лет спустя"
    PERFORMER "Юрий Антонов"
    INDEX 00 07:30:40
    INDEX 01 07:32:70
  TRACK 04 AUDIO
    TITLE "Вот как бывает"
    PERFORMER "Юрий Антонов"
    INDEX 00 11:09:35
    INDEX 01 11:11:65
  TRACK 05 AUDIO
    TITLE "Мое богатство"
    PERFORMER "Юрий Антонов"
    INDEX 00 14:33:40
    INDEX 01 14:35:70
  TRACK 06 AUDIO
    TITLE "Я иду тебе навстречу"
    PERFORMER "Юрий Антонов"
    INDEX 00 17:10:25
    INDEX 01 17:12:55
  TRACK 07 AUDIO
    TITLE "Снегири"
    PERFORMER "Юрий Антонов"
    INDEX 00 20:59:48
    INDEX 01 21:02:03
  TRACK 08 AUDIO
    TITLE "Крыша дома твоего"
    PERFORMER "Юрий Антонов"
    INDEX 00 23:36:68
    INDEX 01 23:39:23
  TRACK 09 AUDIO
    TITLE "Анастасия"
    PERFORMER "Юрий Антонов"
    INDEX 00 26:15:55
    INDEX 01 26:18:10
  TRACK 10 AUDIO
    TITLE "Завтра"
    PERFORMER "Юрий Антонов"
    INDEX 00 29:12:73
    INDEX 01 29:15:28
  TRACK 11 AUDIO
    TITLE "Тебе"
    PERFORMER "Юрий Антонов"
    INDEX 00 32:51:15
    INDEX 01 32:53:45
  TRACK 12 AUDIO
    TITLE "Белый теплоход"
    PERFORMER "Юрий Антонов"
    INDEX 00 37:00:40
    INDEX 01 37:02:70
  TRACK 13 AUDIO
    TITLE "А где-то ..."
    PERFORMER "Юрий Антонов"
    INDEX 00 40:23:43
    INDEX 01 40:25:73
  TRACK 14 AUDIO
    TITLE "Море"
    PERFORMER "Юрий Антонов"
    INDEX 00 44:21:40
    INDEX 01 44:23:70
[Профиль] [ЛС]

Создавать темы 13-Авг-2015 10:04 (спустя 1 год)

Топик был перенесен из форума Отечественная в форум Music from other genres
sergej644
 
Показать сообщения:    

Текущее время: Сегодня 18:40

Часовой пояс: GMT



Вы не можете начинать темы
Вы не можете отвечать на сообщения
Вы не можете редактировать свои сообщения
Вы не можете удалять свои сообщения
Вы не можете голосовать в опросах
Вы не можете прикреплять файлы к сообщениям
Вы не можете скачивать файлы