(Pop) Юлия Савичева - Дискография (10 CD) - 2004-2014, FLAC (image+.cue), lossless

 
Автор Сообщение

sergej644 ®

Пол:

Стаж: 4 года 11 месяцев

Сообщений: 6046

Откуда: Soviet Union



Награды: Нет

Торрент-статистика

Создавать темы 28-Дек-2014 13:58

[Цитировать]

Юлия Савичева - Дискография (10 CD) Жанр: Pop
Страна-производитель дисков: Россия
Год издания дисков: 2004-2014
Аудио кодек: FLAC (*.flac) / MP3
Тип рипа: image+.cue
Битрейт аудио: lossless
Источник (релизер): bruk67
Наличие сканов в содержимом раздачи: 600 dpi, JPG

2004 - Belive me. Ru.Hits (бутлег)

Belive me. Ru.Hits --Страна-производитель диска: Россия
Год издания диска: 2004
Издатель (лейбл): Shock-Records
Номер по каталогу: Юля Савичева
Продолжительность: 00:59:22
--Треклист:
01. Прости за любовь
02. Believe me
03. Высоко
04. Корабли
05. Прощай, моя любовь
06. Torn
07. Ветер (дуэт с Монокини)
08. На удачу (дуэт с Мумий Тролль)
09. Прощай, Берлин (дуэт с Би-2)
10. Power of love (дуэт с Н. Басковым)
11. На Тихорецкую (дуэт с Ногу Свело)
12. I wille survive (дуэт с Л. Долиной)
13. Невеста (Ю. Савичева, Е. Темникова и М. Ржевская)
14. Доброе утро, планета! (дуэт с Мумий Тролль)
15. Rivers of Babylon (Boney M feat. Ю. Савичева)
--

Лог создания рипа

Exact Audio Copy V1.0 beta 3 from 29. August 2011
EAC extraction logfile from 29. February 2012, 21:47
Юлия Савичева / Belive me. Ru.Hits
Used drive  : PIONEER DVD-RW  DVR-212   Adapter: 8  ID: 0
Read mode               : Secure
Utilize accurate stream : Yes
Defeat audio cache      : Yes
Make use of C2 pointers : No
Read offset correction                      : 48
Overread into Lead-In and Lead-Out          : No
Fill up missing offset samples with silence : Yes
Delete leading and trailing silent blocks   : No
Null samples used in CRC calculations       : Yes
Used interface                              : Installed external ASPI interface
Used output format : Internal WAV Routines
Sample format      : 44.100 Hz; 16 Bit; Stereo
TOC of the extracted CD
     Track |   Start  |  Length  | Start sector | End sector
    ---------------------------------------------------------
        1  |  0:00.00 |  4:08.09 |         0    |    18608
        2  |  4:08.09 |  2:49.01 |     18609    |    31284
        3  |  6:57.10 |  4:45.55 |     31285    |    52714
        4  | 11:42.65 |  4:10.40 |     52715    |    71504
        5  | 15:53.30 |  4:28.03 |     71505    |    91607
        6  | 20:21.33 |  3:23.43 |     91608    |   106875
        7  | 23:45.01 |  4:17.05 |    106876    |   126155
        8  | 28:02.06 |  3:44.17 |    126156    |   142972
        9  | 31:46.23 |  5:34.09 |    142973    |   168031
       10  | 37:20.32 |  4:39.20 |    168032    |   188976
       11  | 41:59.52 |  1:50.19 |    188977    |   197245
       12  | 43:49.71 |  3:42.06 |    197246    |   213901
       13  | 47:32.02 |  4:10.25 |    213902    |   232676
       14  | 51:42.27 |  3:18.71 |    232677    |   247597
       15  | 55:01.23 |  4:20.40 |    247598    |   267137
Range status and errors
Selected range
     Filename M:\FLAC (bruk67)\MP3\Юлия Савичева (FLAC)\2004 - Belive me. Ru.Hits\Юлия Савичева - Belive me. Ru.Hits.wav
     Peak level 100.0 %
     Extraction speed 7.2 X
     Range quality 100.0 %
     Test CRC 8CBCEDAD
     Copy CRC 8CBCEDAD
     Copy OK
No errors occurred
AccurateRip summary
Track  1  not present in database
Track  2  not present in database
Track  3  not present in database
Track  4  not present in database
Track  5  not present in database
Track  6  not present in database
Track  7  not present in database
Track  8  not present in database
Track  9  not present in database
Track 10  not present in database
Track 11  not present in database
Track 12  not present in database
Track 13  not present in database
Track 14  not present in database
Track 15  not present in database
None of the tracks are present in the AccurateRip database
End of status report
---- CUETools DB Plugin V2.1.3
[CTDB TOCID: KrmMSdrK.TlA2o.GZUPwuLAllns-] disk not present in database, Submit result: KrmMSdrK.TlA2o.GZUPwuLAllns- has been uploaded
==== Log checksum B9E0CF383CB570D04B3EB2FDF7A8383EAB0975EC08630A3A10AF0465B33E78E1 ====

Скриншот спектра частот

2005 - Высоко

Высоко --Страна-производитель диска: Россия
Год издания диска: 2005
Издатель (лейбл): MAXIM FADEEV PRODUSER CENTR/ГАСПАР АРНЕРИ
Номер по каталогу: ГА 003-1
Продолжительность: 00:43:25
--Треклист:
01. Высоко
02. Корабли
03. Отпусти меня
04. Стоп
05. Прощай моя любовь
06. Пока
07. Все для тебя
08. Бежать,лететь
09. Прости за любовь
10. Я с тобой
11. Believe me
--

Лог создания рипа

Exact Audio Copy V1.0 beta 1 from 15. November 2010
EAC extraction logfile from 5. March 2011, 4:19
Юлия Савичева / Высоко
Used drive  : TEAC    CD-W58E   Adapter: 4  ID: 1
Read mode               : Secure
Utilize accurate stream : Yes
Defeat audio cache      : Yes
Make use of C2 pointers : No
Read offset correction                      : 685
Overread into Lead-In and Lead-Out          : No
Fill up missing offset samples with silence : Yes
Delete leading and trailing silent blocks   : No
Null samples used in CRC calculations       : Yes
Used interface                              : Installed external ASPI interface
Used output format : Internal WAV Routines
Sample format      : 44.100 Hz; 16 Bit; Stereo
TOC of the extracted CD
     Track |   Start  |  Length  | Start sector | End sector
    ---------------------------------------------------------
        1  |  0:00.00 |  4:54.40 |         0    |    22089
        2  |  4:54.40 |  4:09.12 |     22090    |    40776
        3  |  9:03.52 |  3:28.65 |     40777    |    56441
        4  | 12:32.42 |  3:49.02 |     56442    |    73618
        5  | 16:21.44 |  4:43.47 |     73619    |    94890
        6  | 21:05.16 |  3:39.54 |     94891    |   111369
        7  | 24:44.70 |  3:39.51 |    111370    |   127845
        8  | 28:24.46 |  4:12.04 |    127846    |   146749
        9  | 32:36.50 |  4:08.68 |    146750    |   165417
       10  | 36:45.43 |  3:53.74 |    165418    |   182966
       11  | 40:39.42 |  2:45.33 |    182967    |   195374
Range status and errors
Selected range
     Filename J:\MP3\Юлию Савичева (FLAC)\2005 - Высоко\Юлия Савичева - Высоко.wav
     Peak level 100.0 %
     Extraction speed 0.2 X
     Range quality 100.0 %
     Test CRC D8F35E53
     Copy CRC D8F35E53
     Copy OK
No errors occurred
AccurateRip summary
Track  1  accurately ripped (confidence 3)  [F140BF2B]
Track  2  accurately ripped (confidence 3)  [1D8654C1]
Track  3  accurately ripped (confidence 3)  [0584CD48]
Track  4  accurately ripped (confidence 3)  [34367DA9]
Track  5  accurately ripped (confidence 3)  [BA9CD425]
Track  6  accurately ripped (confidence 3)  [1F0B83AA]
Track  7  accurately ripped (confidence 3)  [35F854EF]
Track  8  accurately ripped (confidence 3)  [CD11DA82]
Track  9  accurately ripped (confidence 3)  [47D55EFE]
Track 10  accurately ripped (confidence 3)  [60B00A56]
Track 11  accurately ripped (confidence 3)  [2EEF18FC]
All tracks accurately ripped
End of status report
==== Log checksum 53BEF8F8983E301599E60AAB43F7AD308D75D95B06A24C462BF934F5D85A54E8 ====

Скриншот спектра частот

2005 - Если в сердце живёт любовь

Если в сердце живёт любовь --Страна-производитель диска: Россия
Год издания диска: 2005
Издатель (лейбл): MAXIM FADEEV PRODUSER CENTR/ГАСПАР АРНЕРИ/МОНОЛИТ
Номер по каталогу: МТ 10879-542-1
Продолжительность: 00:57:27
--Треклист:
01. Если в серце живет любовь
02. Стоп Live
03. Отпусти меня Live
04. Я с тобой Live
05. Бежать, лететь Live
06. Пока Live
07. Корабли Live
08. Высоко Live
09. Прощай, моя любовь Live
10. Всё для тебя Live
11. Прости за любовь Live
12. Believe me Live

--

Лог создания рипа

Exact Audio Copy V1.0 beta 3 from 29. August 2011
EAC extraction logfile from 24. October 2011, 0:36
Юлия Савичева / Если в сердце живёт любовь
Used drive  : PIONEER DVD-RW  DVR-212   Adapter: 1  ID: 0
Read mode               : Secure
Utilize accurate stream : Yes
Defeat audio cache      : Yes
Make use of C2 pointers : No
Read offset correction                      : 48
Overread into Lead-In and Lead-Out          : No
Fill up missing offset samples with silence : Yes
Delete leading and trailing silent blocks   : No
Null samples used in CRC calculations       : Yes
Used interface                              : Native Win32 interface for Win NT & 2000
Used output format : Internal WAV Routines
Sample format      : 44.100 Hz; 16 Bit; Stereo
TOC of the extracted CD
     Track |   Start  |  Length  | Start sector | End sector
    ---------------------------------------------------------
        1  |  0:00.00 |  3:08.66 |         0    |    14165
        2  |  3:08.66 |  3:47.43 |     14166    |    31233
        3  |  6:56.34 |  4:32.04 |     31234    |    51637
        4  | 11:28.38 |  4:50.74 |     51638    |    73461
        5  | 16:19.37 |  3:53.39 |     73462    |    90975
        6  | 20:13.01 |  5:46.17 |     90976    |   116942
        7  | 25:59.18 |  6:33.33 |    116943    |   146450
        8  | 32:32.51 |  5:02.05 |    146451    |   169105
        9  | 37:34.56 |  5:15.49 |    169106    |   192779
       10  | 42:50.30 |  4:24.74 |    192780    |   212653
       11  | 47:15.29 |  6:41.02 |    212654    |   242730
       12  | 53:56.31 |  3:30.36 |    242731    |   258516
Range status and errors
Selected range
     Filename J:\MP3\Юлия Савичева (FLAC)\2005 - Если в сердце живёт любовь\Юлия Савичева - Если в сердце живёт любовь.wav
     Peak level 97.7 %
     Extraction speed 6.8 X
     Range quality 100.0 %
     Test CRC 319DB5D8
     Copy CRC 319DB5D8
     Copy OK
No errors occurred
AccurateRip summary
Track  1  not present in database
Track  2  cannot be verified as accurate (confidence 1)  [4EBB5FF4], AccurateRip returned [B87EC37C]  (AR v2)
Track  3  cannot be verified as accurate (confidence 1)  [A73946C4], AccurateRip returned [00206A9F]  (AR v2)
Track  4  cannot be verified as accurate (confidence 1)  [A540480C], AccurateRip returned [5C353727]  (AR v2)
Track  5  cannot be verified as accurate (confidence 1)  [6CAAB132], AccurateRip returned [B47B6E32]  (AR v2)
Track  6  cannot be verified as accurate (confidence 1)  [89EB4034], AccurateRip returned [440D9240]  (AR v2)
Track  7  cannot be verified as accurate (confidence 1)  [0F2BC029], AccurateRip returned [ABED4240]  (AR v2)
Track  8  cannot be verified as accurate (confidence 1)  [C55F4452], AccurateRip returned [C3C685D6]  (AR v2)
Track  9  cannot be verified as accurate (confidence 1)  [0FCE4DAF], AccurateRip returned [3682D733]  (AR v2)
Track 10  cannot be verified as accurate (confidence 1)  [4E4F26B3], AccurateRip returned [EC3CDAB5]  (AR v2)
Track 11  cannot be verified as accurate (confidence 1)  [3D8B9E67], AccurateRip returned [2A3FE637]  (AR v2)
Track 12  cannot be verified as accurate (confidence 1)  [069323B1], AccurateRip returned [5C1F3AE9]  (AR v2)
11 трек(и) не удалось проверить на точность
1 трек(и) не содержатся в базе AccurateRip
No tracks could be verified as accurate
You may have a different pressing from the one(s) in the database
End of status report
---- CUETools DB Plugin V2.1.3
[CTDB TOCID: W9dSRDzWNPKFwh7kybsYY2FQ6yg-] disk not present in database, Submit result: database access error: Время ожидания операции истекло
==== Log checksum 4E5227B8296761E129B783342AA6BAEC3D6082E8CFE1FFFFB25AB95EA304D279 ====

Скриншот спектра частот

2006 - Магнит

Магнит --Страна-производитель диска: Россия
Год издания диска: 2006
Издатель (лейбл): MAXIM FADEEV PRODUSER CENTR/ГАСПАР АРНЕРИ/МОНОЛИТ
Номер по каталогу: МТ 713557-350-1
Продолжительность: 00:48:13
--Треклист:
01. Привет
02. Отпусти
03. Если в сердце живёт любовь
04. Здравствуй, это я
05. Лёгкие
06. Мало
07. Виноград
08. Как твои дела
09. Я хочу в твои глаза
10. Седьмое небо
Bonus:
11. Если в сердце живёт любовь (NeoMaster Remix)
12. Лёгкие (Navigator Remix)
13. Седьмое небо (Andrei Harchenco Reake)

--

Лог создания рипа

Exact Audio Copy V1.0 beta 3 from 29. August 2011
EAC extraction logfile from 24. October 2011, 1:38
Юлия Савичева / Магнит
Used drive  : PIONEER DVD-RW  DVR-212   Adapter: 1  ID: 0
Read mode               : Secure
Utilize accurate stream : Yes
Defeat audio cache      : Yes
Make use of C2 pointers : No
Read offset correction                      : 48
Overread into Lead-In and Lead-Out          : No
Fill up missing offset samples with silence : Yes
Delete leading and trailing silent blocks   : No
Null samples used in CRC calculations       : Yes
Used interface                              : Native Win32 interface for Win NT & 2000
Used output format : Internal WAV Routines
Sample format      : 44.100 Hz; 16 Bit; Stereo
TOC of the extracted CD
     Track |   Start  |  Length  | Start sector | End sector
    ---------------------------------------------------------
        1  |  0:00.00 |  3:35.03 |         0    |    16127
        2  |  3:35.03 |  3:45.30 |     16128    |    33032
        3  |  7:20.33 |  3:09.36 |     33033    |    47243
        4  | 10:29.69 |  3:19.74 |     47244    |    62242
        5  | 13:49.68 |  4:03.70 |     62243    |    80537
        6  | 17:53.63 |  3:57.23 |     80538    |    98335
        7  | 21:51.11 |  3:42.68 |     98336    |   115053
        8  | 25:34.04 |  3:24.73 |    115054    |   130426
        9  | 28:59.02 |  4:15.02 |    130427    |   149553
       10  | 33:14.04 |  3:48.68 |    149554    |   166721
       11  | 37:02.72 |  3:00.08 |    166722    |   180229
       12  | 40:03.05 |  4:18.13 |    180230    |   199592
       13  | 44:21.18 |  3:51.33 |    199593    |   216950
Range status and errors
Selected range
     Filename J:\MP3\Юлия Савичева (FLAC)\2006 - Магнит\Юлия Савичева - Магнит.wav
     Peak level 100.0 %
     Extraction speed 1.4 X
     Range quality 100.0 %
     Test CRC 5AE30C15
     Copy CRC 5AE30C15
     Copy OK
No errors occurred
AccurateRip summary
Track  1  accurately ripped (confidence 7)  [F235CF82]  (AR v1)
Track  2  accurately ripped (confidence 7)  [0B19A5C2]  (AR v1)
Track  3  accurately ripped (confidence 7)  [B7E63FA6]  (AR v1)
Track  4  accurately ripped (confidence 7)  [3855A890]  (AR v1)
Track  5  accurately ripped (confidence 7)  [45A83CB5]  (AR v1)
Track  6  accurately ripped (confidence 7)  [6A639052]  (AR v1)
Track  7  accurately ripped (confidence 7)  [8876267C]  (AR v1)
Track  8  accurately ripped (confidence 6)  [34DEF61B]  (AR v1)
Track  9  accurately ripped (confidence 7)  [6378CC29]  (AR v1)
Track 10  accurately ripped (confidence 7)  [EB8E8F40]  (AR v1)
Track 11  accurately ripped (confidence 7)  [88686607]  (AR v1)
Track 12  accurately ripped (confidence 7)  [06DBBFFA]  (AR v1)
Track 13  accurately ripped (confidence 7)  [BA6056B9]  (AR v1)
All tracks accurately ripped
End of status report
---- CUETools DB Plugin V2.1.3
[CTDB TOCID: jAi1xLm3hTROMBow_sS0NSkQJFA-] found, Submit result: jAi1xLm3hTROMBow_sS0NSkQJFA- has been confirmed
[0f5ff015] (7/7) Accurately ripped
==== Log checksum 107BA4D70F5007496EEE9A97101A745E3B45D3CEED4DB9852BCF9D51C42406C9 ====

Скриншот спектра частот

2007 - SKECHERS. Звёздный подарок (Single)

SKECHERS. Звёздный подарок (Single) --Страна-производитель диска: Россия
Год издания диска: 2007
Издатель (лейбл): SKECHERS/МОНОЛИТ
Номер по каталогу: LS 1098
Продолжительность: 00:15:25
--Треклист:
01. Привет
02. Отпусти
03. Виноград
04. Лёгкие
05. Мало (video)


--

Лог создания рипа

Exact Audio Copy V1.0 beta 3 from 29. August 2011
EAC extraction logfile from 6. February 2012, 15:13
Юлия Савичева / SKECHERS. Звёздный подарок (Single)
Used drive  : PIONEER DVD-RW  DVR-212   Adapter: 1  ID: 0
Read mode               : Secure
Utilize accurate stream : Yes
Defeat audio cache      : Yes
Make use of C2 pointers : No
Read offset correction                      : 48
Overread into Lead-In and Lead-Out          : No
Fill up missing offset samples with silence : Yes
Delete leading and trailing silent blocks   : No
Null samples used in CRC calculations       : Yes
Used interface                              : Native Win32 interface for Win NT & 2000
Used output format : Internal WAV Routines
Sample format      : 44.100 Hz; 16 Bit; Stereo
TOC of the extracted CD
     Track |   Start  |  Length  | Start sector | End sector
    ---------------------------------------------------------
        1  |  0:00.00 |  3:41.01 |         0    |    16575
        2  |  3:41.01 |  3:51.28 |     16576    |    33928
        3  |  7:32.29 |  3:48.66 |     33929    |    51094
        4  | 11:21.20 |  4:03.66 |     51095    |    69385
        5  | 17:57.11 | 21:07.16 |     80786    |   175826
Range status and errors
Selected range
     Filename J:\MP3\Юлия Савичева (FLAC)\2007 - SKECHERS. Звёздный подарок (Single)\Юлия Савичева - SKECHERS. Звёздный подарок (Single).wav
     Peak level 100.0 %
     Extraction speed 5.4 X
     Range quality 100.0 %
     Test CRC 9E066E42
     Copy CRC 9E066E42
     Copy OK
No errors occurred
AccurateRip summary
Track  1  not present in database
Track  2  not present in database
Track  3  not present in database
Track  4  not present in database
None of the tracks are present in the AccurateRip database
End of status report
---- CUETools DB Plugin V2.1.3
[CTDB TOCID: tbGtYim8dhwk.Y57jzYqF2asICk-] disk not present in database, Submit result: tbGtYim8dhwk.Y57jzYqF2asICk- has been uploaded
==== Log checksum 08E9E4D201A782186978105FFFFCD161A3F02F631B05FC0E8E96C5BFADD83F35 ====

Скриншот спектра частот

Мало (video)

Продолжительность: 03:56
Видео: MPEG2 Video 720x576 25.00fps 6000Kbps [Video]
Аудио: Dolby AC3 48000Hz stereo 448Kbps [Audio]

Скриншоты

2008 - Новая коллекция

Новая коллекция --Страна-производитель диска: Россия
Год издания диска: 2008
Издатель (лейбл): МОНОЛИТ
Номер по каталогу: МТ 1000294-034-1
Продолжительность: 01:14:14
--Треклист:
01 Половинка
02 Любовь-Москва
03 Если в сердце живёт любовь
04 Believe me
05 Прости за любовь
06 Корабли
07 Стоп
08 Лёгкие
09 Высоко
10 Пока
11 Зима
12 Отпусти меня
13 Мало
14 Никак
15 Выше звёзд
16 Привет
17 Как твои дела
18 Если в сердце живёт любовь (NeoMaster Remix)
--

Лог создания рипа

Exact Audio Copy V0.99 prebeta 5 from 4. May 2009
EAC extraction logfile from 16. August 2012, 21:28
Юлия Савичева / Новая коллекция
Used drive  : PIONEER DVD-RW  DVR-212   Adapter: 8  ID: 0
Read mode               : Secure
Utilize accurate stream : Yes
Defeat audio cache      : Yes
Make use of C2 pointers : No
Read offset correction                      : 48
Overread into Lead-In and Lead-Out          : No
Fill up missing offset samples with silence : Yes
Delete leading and trailing silent blocks   : No
Null samples used in CRC calculations       : Yes
Used interface                              : Installed external ASPI interface
Used output format : Internal WAV Routines
Sample format      : 44.100 Hz; 16 Bit; Stereo
TOC of the extracted CD
     Track |   Start  |  Length  | Start sector | End sector
    ---------------------------------------------------------
        1  |  0:00.00 |  2:52.28 |         0    |    12927
        2  |  2:52.28 |  3:21.29 |     12928    |    28031
        3  |  6:13.57 |  3:09.00 |     28032    |    42206
        4  |  9:22.57 |  2:47.30 |     42207    |    54761
        5  | 12:10.12 |  4:08.11 |     54762    |    73372
        6  | 16:18.23 |  4:09.04 |     73373    |    92051
        7  | 20:27.27 |  3:47.73 |     92052    |   109149
        8  | 24:15.25 |  4:03.07 |    109150    |   127381
        9  | 28:18.32 |  4:53.14 |    127382    |   149370
       10  | 33:11.46 |  3:37.70 |    149371    |   165715
       11  | 36:49.41 |  3:38.25 |    165716    |   182090
       12  | 40:27.66 |  3:26.02 |    182091    |   197542
       13  | 43:53.68 |  3:56.08 |    197543    |   215250
       14  | 47:50.01 |  3:49.59 |    215251    |   232484
       15  | 51:39.60 |  3:25.45 |    232485    |   247904
       16  | 55:05.30 |  3:34.69 |    247905    |   264023
       17  | 58:40.24 |  3:24.49 |    264024    |   279372
       18  | 62:04.73 |  2:58.08 |    279373    |   292730
Range status and errors
Selected range
     Filename M:\FLAC (bruk67)\MP3\Юлия Савичева (FLAC)\2008 - Новая коллекция\Юлия Савичева - Новая коллекция.wav
     Peak level 99.9 %
     Range quality 99.9 %
     Test CRC 4ACD3D40
     Copy CRC 4ACD3D40
     Copy OK
No errors occurred
AccurateRip summary
Track  1  accurately ripped (confidence 1)  [9E82A099]
Track  2  accurately ripped (confidence 1)  [93926845]
Track  3  accurately ripped (confidence 1)  [4F7CE699]
Track  4  accurately ripped (confidence 1)  [ED870491]
Track  5  accurately ripped (confidence 1)  [4EFDCED1]
Track  6  accurately ripped (confidence 1)  [2B68A2DB]
Track  7  accurately ripped (confidence 1)  [60453B2E]
Track  8  accurately ripped (confidence 1)  [81534E6A]
Track  9  accurately ripped (confidence 1)  [D3173332]
Track 10  accurately ripped (confidence 1)  [471685D3]
Track 11  accurately ripped (confidence 1)  [017B4023]
Track 12  accurately ripped (confidence 1)  [A8DF8059]
Track 13  accurately ripped (confidence 1)  [E17EB026]
Track 14  accurately ripped (confidence 1)  [4DE09338]
Track 15  accurately ripped (confidence 1)  [C1A5D8AE]
Track 16  accurately ripped (confidence 1)  [B5BBFD16]
Track 17  accurately ripped (confidence 1)  [44CD4925]
Track 18  accurately ripped (confidence 1)  [1BBF4015]
All tracks accurately ripped
End of status report

Скриншот спектра частот

2008 - Оригами

Оригами --Страна-производитель диска: Россия
Год издания диска: 2008
Издатель (лейбл): ГАСПАР АРНЕРИ/МОНОЛИТ
Номер по каталогу: МТ 715391-692-1
Продолжительность: 00:38:38
--Треклист:
01. Любовь-Москва
02. Выше звёзд
03. Никак
04. Ядерный взрыв
05. Зима
06. Половинка
07. Это судьба (дуэт с А. Макарским)
08. Послезавтра
09. Кто-то придумал любовь
10. Пепел
11. Никак (Alex Astero remix)
--

Лог создания рипа

Exact Audio Copy V1.0 beta 3 from 29. August 2011
EAC extraction logfile from 24. October 2011, 2:12
Юлия Савичева / Оригами
Used drive  : PIONEER DVD-RW  DVR-212   Adapter: 1  ID: 0
Read mode               : Secure
Utilize accurate stream : Yes
Defeat audio cache      : Yes
Make use of C2 pointers : No
Read offset correction                      : 48
Overread into Lead-In and Lead-Out          : No
Fill up missing offset samples with silence : Yes
Delete leading and trailing silent blocks   : No
Null samples used in CRC calculations       : Yes
Used interface                              : Native Win32 interface for Win NT & 2000
Used output format : Internal WAV Routines
Sample format      : 44.100 Hz; 16 Bit; Stereo
TOC of the extracted CD
     Track |   Start  |  Length  | Start sector | End sector
    ---------------------------------------------------------
        1  |  0:00.00 |  3:25.53 |         0    |    15427
        2  |  3:25.53 |  3:26.69 |     15428    |    30946
        3  |  6:52.47 |  3:49.65 |     30947    |    48186
        4  | 10:42.37 |  3:59.04 |     48187    |    66115
        5  | 14:41.41 |  3:39.47 |     66116    |    82587
        6  | 18:21.13 |  2:53.30 |     82588    |    95592
        7  | 21:14.43 |  3:34.55 |     95593    |   111697
        8  | 24:49.23 |  3:32.66 |    111698    |   127663
        9  | 28:22.14 |  3:19.19 |    127664    |   142607
       10  | 31:41.33 |  3:52.58 |    142608    |   160065
       11  | 35:34.16 |  3:10.64 |    160066    |   174379
Range status and errors
Selected range
     Filename J:\MP3\Юлия Савичева (FLAC)\2008 - Оригами\Юлия Савичева - Оригами.wav
     Peak level 100.0 %
     Extraction speed 6.0 X
     Range quality 100.0 %
     Test CRC 4535B9B6
     Copy CRC 4535B9B6
     Copy OK
No errors occurred
AccurateRip summary
Track  1  accurately ripped (confidence 2)  [8E8E9FD3]  (AR v1)
Track  2  accurately ripped (confidence 2)  [77916FFE]  (AR v1)
Track  3  accurately ripped (confidence 2)  [41994E18]  (AR v1)
Track  4  accurately ripped (confidence 2)  [B9DB254B]  (AR v1)
Track  5  accurately ripped (confidence 2)  [B7D08975]  (AR v1)
Track  6  accurately ripped (confidence 2)  [A1164CC8]  (AR v1)
Track  7  accurately ripped (confidence 2)  [75A7B4FA]  (AR v1)
Track  8  accurately ripped (confidence 2)  [06C97A69]  (AR v1)
Track  9  accurately ripped (confidence 2)  [B155F380]  (AR v1)
Track 10  accurately ripped (confidence 2)  [5A9E0C96]  (AR v1)
Track 11  accurately ripped (confidence 2)  [2ACED763]  (AR v1)
All tracks accurately ripped
End of status report
---- CUETools DB Plugin V2.1.3
[CTDB TOCID: 3GiDKCNXre6aRwGfTjmn91Ana4U-] disk not present in database, Submit result: 3GiDKCNXre6aRwGfTjmn91Ana4U- has been uploaded
==== Log checksum 24A3D0C5E8EFB12D9F367A23C97904E3CF78E9E1E0DC90C5D2FD1C79861836F0 ====

Скриншот спектра частот

2010 - Новая коллекция

Новая коллекция --Страна-производитель диска: Россия
Год издания диска: 2010
Издатель (лейбл): ГАСПАР АРНЕРИ/МОНОЛИТ
Номер по каталогу: МТ 000410-236-1
Продолжительность: 01:14:14
--Треклист:
01 Привет
02 Никак
03 Высоко
04 Отпусти
05 Выше звёзд
06 Зима
07 Всё для тебя
08 Мало
09 Лёгкие
10 Прощай, моя любовь
11 Если в сердце живёт любовь
12 Стоп
13 Это судьба (дуэт с Антоном Макарским)
14 Половинка
15 Корабли
16 Как твои дела
17 Goodby, любовь
18 Прости за любовь
19 Любовь-Москва
20 Believe me
--

Лог создания рипа

Exact Audio Copy V1.0 beta 3 from 29. August 2011
EAC extraction logfile from 24. October 2011, 2:39
Юлия Савичева / Новая коллекция
Used drive  : PIONEER DVD-RW  DVR-212   Adapter: 1  ID: 0
Read mode               : Secure
Utilize accurate stream : Yes
Defeat audio cache      : Yes
Make use of C2 pointers : No
Read offset correction                      : 48
Overread into Lead-In and Lead-Out          : No
Fill up missing offset samples with silence : Yes
Delete leading and trailing silent blocks   : No
Null samples used in CRC calculations       : Yes
Used interface                              : Native Win32 interface for Win NT & 2000
Used output format : Internal WAV Routines
Sample format      : 44.100 Hz; 16 Bit; Stereo
TOC of the extracted CD
     Track |   Start  |  Length  | Start sector | End sector
    ---------------------------------------------------------
        1  |  0:00.00 |  3:34.60 |         0    |    16109
        2  |  3:34.60 |  3:49.59 |     16110    |    33343
        3  |  7:24.44 |  4:53.12 |     33344    |    55330
        4  | 12:17.56 |  3:47.30 |     55331    |    72385
        5  | 16:05.11 |  3:25.33 |     72386    |    87793
        6  | 19:30.44 |  3:38.20 |     87794    |   104163
        7  | 23:08.64 |  3:39.47 |    104164    |   120635
        8  | 26:48.36 |  3:56.07 |    120636    |   138342
        9  | 30:44.43 |  4:03.05 |    138343    |   156572
       10  | 34:47.48 |  4:43.35 |    156573    |   177832
       11  | 39:31.08 |  3:08.61 |    177833    |   191993
       12  | 42:39.69 |  3:47.73 |    191994    |   209091
       13  | 46:27.67 |  3:34.08 |    209092    |   225149
       14  | 50:02.00 |  2:52.16 |    225150    |   238065
       15  | 52:54.16 |  4:09.01 |    238066    |   256741
       16  | 57:03.17 |  3:24.19 |    256742    |   272060
       17  | 60:27.36 |  3:31.73 |    272061    |   287958
       18  | 63:59.34 |  4:08.00 |    287959    |   306558
       19  | 68:07.34 |  3:21.28 |    306559    |   321661
       20  | 71:28.62 |  2:45.28 |    321662    |   334064
Range status and errors
Selected range
     Filename J:\MP3\Юлия Савичева (FLAC)\2010 - Новая коллекция\Юлия Савичева - Новая коллекция.wav
     Peak level 100.0 %
     Extraction speed 7.1 X
     Range quality 100.0 %
     Test CRC 19BA8D4D
     Copy CRC 19BA8D4D
     Copy OK
No errors occurred
AccurateRip summary
Track  1  not present in database
Track  2  not present in database
Track  3  not present in database
Track  4  not present in database
Track  5  not present in database
Track  6  not present in database
Track  7  not present in database
Track  8  not present in database
Track  9  not present in database
Track 10  not present in database
Track 11  not present in database
Track 12  not present in database
Track 13  not present in database
Track 14  not present in database
Track 15  not present in database
Track 16  not present in database
Track 17  not present in database
Track 18  not present in database
Track 19  not present in database
Track 20  not present in database
None of the tracks are present in the AccurateRip database
End of status report
---- CUETools DB Plugin V2.1.3
[CTDB TOCID: 2IwEp1nkRtBYRhWSefR44Jv90JI-] disk not present in database, Submit result: 2IwEp1nkRtBYRhWSefR44Jv90JI- has been uploaded
==== Log checksum 6D60C30D55068CD756539254218D44CDD119C4B9C072F5A4EF6A2D752AF862D8 ====

Скриншот спектра частот

2012 - Сердцебиение

Сердцебиение --Страна-производитель диска: Россия
Год издания диска: 2012
Издатель (лейбл): Монолит
Номер по каталогу: МТ 001091-116-1
Продолжительность: 01:06:50
--Треклист:
01. Москва-Владивосток
02. Я так тебя жду
03. Юлия
04. Сердцебиение
05. Сумерки
06. Привет, любовь моя
07. Отпусти (feat. Джиган)
08. Скажи мне, что такое любовь
09. Goodbye, любовь
10. Настя
11. Я с тобой (feat. DJ Feel)
12. Не уходи
13. Корабли (feat. Т9)
14. Звезда (feat. Максим Фадеев, Serebro, Глюк'оzа, Дали и др.)
15. Москва-Владивосток (Harisma remix)
16. Сердцебиение (Hacker&Moriss remix)

--

Лог создания рипа

Exact Audio Copy V0.99 prebeta 5 from 4. May 2009
EAC extraction logfile from 12. May 2013, 16:49
Юлия Савичева / Сердцебиение
Used drive  : PLEXTOR DVDR   PX-760A   Adapter: 4  ID: 2
Read mode               : Secure
Utilize accurate stream : Yes
Defeat audio cache      : Yes
Make use of C2 pointers : No
Read offset correction                      : 30
Overread into Lead-In and Lead-Out          : Yes
Fill up missing offset samples with silence : Yes
Delete leading and trailing silent blocks   : No
Null samples used in CRC calculations       : Yes
Used interface                              : Installed external ASPI interface
Used output format : Internal WAV Routines
Sample format      : 44.100 Hz; 16 Bit; Stereo
TOC of the extracted CD
     Track |   Start  |  Length  | Start sector | End sector
    ---------------------------------------------------------
        1  |  0:00.00 |  3:42.60 |         0    |    16709
        2  |  3:42.60 |  4:39.28 |     16710    |    37662
        3  |  8:22.13 |  3:24.72 |     37663    |    53034
        4  | 11:47.10 |  3:29.12 |     53035    |    68721
        5  | 15:16.22 |  2:53.23 |     68722    |    81719
        6  | 18:09.45 |  3:31.02 |     81720    |    97546
        7  | 21:40.47 |  3:20.40 |     97547    |   112586
        8  | 25:01.12 |  3:48.06 |    112587    |   129692
        9  | 28:49.18 |  3:32.40 |    129693    |   145632
       10  | 32:21.58 |  4:12.16 |    145633    |   164548
       11  | 36:33.74 |  3:49.00 |    164549    |   181723
       12  | 40:22.74 |  3:59.00 |    181724    |   199648
       13  | 44:21.74 |  4:24.56 |    199649    |   219504
       14  | 48:46.55 |  5:38.18 |    219505    |   244872
       15  | 54:24.73 |  3:40.04 |    244873    |   261376
       16  | 58:05.02 |  8:44.37 |    261377    |   300713
Range status and errors
Selected range
     Filename M:\FLAC (bruk67)\MP3\Юлия Савичева (FLAC)\2012 - Сердцебиение\Юлия Савичева - Сердцебиение.wav
     Peak level 100.0 %
     Range quality 100.0 %
     Test CRC 8BC649A1
     Copy CRC 8BC649A1
     Copy OK
No errors occurred
AccurateRip summary
Track  1  not present in database
Track  2  not present in database
Track  3  not present in database
Track  4  not present in database
Track  5  not present in database
Track  6  not present in database
Track  7  not present in database
Track  8  not present in database
Track  9  not present in database
Track 10  not present in database
Track 11  not present in database
Track 12  not present in database
Track 13  not present in database
Track 14  not present in database
Track 15  not present in database
Track 16  not present in database
None of the tracks are present in the AccurateRip database
End of status report

Скриншот спектра частот

2014 - Личное...

Личное... --Страна-производитель диска: Россия
Год издания диска: 2014
Издатель (лейбл): Монолит
Номер по каталогу: МТ 001091-451-1
Продолжительность: 00:34:24
--Треклист:
01. Моё ты вдохновение
02. Камелии
03. Что есть любовь?
04. Белый самолёт
05. Сижу у распахнутой двери...
06. Маяки
07. Мы тени прожитых надежд
08. Романс о женщине
09. Проснись и пой
10. Огни большого города
11. А за окном кружит метель
12. Тай как снег
13. Готовлюсь сделать первый шаг на сцену

--

Об альбоме:

Долгожданный лиричный сборник песен и стихов, плод совместного творчества Юлии Савичевой и её будущего супруга, музыканта Александра Аршинова. Альбом "Личное" выходит в преддверии их свадьбы, которая состоится 23 октября в Москве. Счастье, когда людей объединяют чувства, благодаря которым соединяются сердца и рождаются семьи, но ещё лучше, когда возлюбленных объединяет общее дело, идея, увлечение, а в данном случае - это страсть к музыке. "Личное"- это сборник, состоящий из 6 песен и 7 стихов. Каждое произведение пропитано нежностью, любовью и теплотой. Отличие этого альбома от других в том, что это не просто песни и стихи, это произведения, которые создавались с таким же трепетом и бережностью, как и сами отношения Саши и Юлии. Работа над альбомом длилась на протяжении последних трех лет.
Юлия и Александр об альбоме:
«Для нас очень многое значит этот альбом. Мы хотели донести смысл каждой песни, каждого стихотворения до самой глубины сердца и души слушателя. В нем затронуты очень личные темы для нас - жизнь, светлая печаль, переживания, поиск ответа на самый сложный вопрос: «Что есть любовь?». Спасибо Максу за веру в нас, за помощь и наставничество. Спасибо всей команде, всем, кто помогал в создании этого альбома. Спасибо всем близким за поддержку и добрые слова. Спасибо Богу за любовь и веру в светлое завтра. Любите друг друга, берегите друг друга, ведь только любовь и забота спасет этот мир».
Саша, Юля

Лог создания рипа

Exact Audio Copy V1.0 beta 1 from 15. November 2010
EAC extraction logfile from 23. December 2014, 20:45
Юлия Савичева / Личное...
Used drive  : PLEXTOR DVDR   PX-760A   Adapter: 4  ID: 2
Read mode               : Secure
Utilize accurate stream : Yes
Defeat audio cache      : Yes
Make use of C2 pointers : No
Read offset correction                      : 30
Overread into Lead-In and Lead-Out          : No
Fill up missing offset samples with silence : Yes
Delete leading and trailing silent blocks   : No
Null samples used in CRC calculations       : Yes
Used interface                              : Native Win32 interface for Win NT & 2000
Used output format : Internal WAV Routines
Sample format      : 44.100 Hz; 16 Bit; Stereo
TOC of the extracted CD
     Track |   Start  |  Length  | Start sector | End sector
    ---------------------------------------------------------
        1  |  0:00.00 |  1:25.38 |         0    |     6412
        2  |  1:25.38 |  5:33.59 |      6413    |    31446
        3  |  6:59.22 |  1:40.19 |     31447    |    38965
        4  |  8:39.41 |  3:36.15 |     38966    |    55180
        5  | 12:15.56 |  0:51.57 |     55181    |    59062
        6  | 13:07.38 |  3:42.39 |     59063    |    75751
        7  | 16:50.02 |  1:06.19 |     75752    |    80720
        8  | 17:56.21 |  4:48.06 |     80721    |   102326
        9  | 22:44.27 |  1:59.00 |    102327    |   111251
       10  | 24:43.27 |  3:25.18 |    111252    |   126644
       11  | 28:08.45 |  1:06.00 |    126645    |   131594
       12  | 29:14.45 |  4:02.49 |    131595    |   149793
       13  | 33:17.19 |  1:06.57 |    149794    |   154800
Range status and errors
Selected range
     Filename M:\FLAC (bruk67)\MP3\Юлия Савичева (FLAC)\2014 - Личное\Юлия Савичева - Личное....wav
     Peak level 100.0 %
     Extraction speed 0.0 X
     Range quality 100.0 %
     Test CRC EC627127
     Copy CRC EC627127
     Copy OK
No errors occurred
AccurateRip summary
Track  1  not present in database
Track  2  not present in database
Track  3  not present in database
Track  4  not present in database
Track  5  not present in database
Track  6  not present in database
Track  7  not present in database
Track  8  not present in database
Track  9  not present in database
Track 10  not present in database
Track 11  not present in database
Track 12  not present in database
Track 13  not present in database
None of the tracks are present in the AccurateRip database
End of status report
==== Log checksum E8166190BFE17164BAA22BBE98C5755CB73047FE557515AAA2F4C0C426B73CD6 ====

Скриншот спектра частот

--
[Профиль] [ЛС]

Создавать темы 13-Авг-2015 11:40 (спустя 7 месяцев 15 дней)

Топик был перенесен из форума Дискографии (Отечественные) в форум Pop
sergej644
 
Кто просматривает тему:

Показать сообщения:    

Текущее время: Сегодня 13:50

Часовой пояс: GMT



Вы не можете начинать темы
Вы не можете отвечать на сообщения
Вы не можете редактировать свои сообщения
Вы не можете удалять свои сообщения
Вы не можете голосовать в опросах
Вы не можете прикреплять файлы к сообщениям
Вы не можете скачивать файлы