Юлия Икс в 3Д / Julia X 3D (П.Дж. Петтьетте / P.J. Pettiette) [2011, ужасы, триллер, комедия, BDrip-AVC] Half SideBySide / Горизонтальная анаморфная стереопара

 
Автор Сообщение

TorrentFilm ®

Пол:

Стаж: 2 года

Сообщений: 7741



Награды: Нет

Торрент-статистика

Создавать темы 04-Янв-2016 00:02

[Цитировать]

Юлия Икс в 3Д / Julia X 3D
Год выпуска: 2011
Страна: США
Жанр: ужасы, триллер, комедия
Продолжительность: 01:32:00
Перевод: Профессиональный (многоголосый закадровый) [online movies]
Режиссер: П.Дж. Петтьетте / P.J. Pettiette
В ролях: Алисия Ли Уиллис, Джоэль Мур, Винг Реймз, Саксон Шарбино, Грегг Браззел, Мэг Рэйнс, Kasi Scarbrought Corley, Сара Дункан.
Описание: Неуловимый серийный маньяк орудует в городе, знакомится со своими будущими жертвами через интернет. После встречается, похищает, пытает, клеймит их по алфавиту, убивает и избавляется от тел разным способом, при этом постоянно слушая в плеере любимого исполнителя. И вот она — очередная жертва, все как обычно: знакомство, похищение, небольшие пытки, клеймо, но… Но новенькая девочка оказалась не такой уж простушкой и умудряется сбежать от него, при это не раз побив его и давая постоянно отпор. Так кто же она жертва или?
Формат 3D: Half SideBySide / Горизонтальная анаморфная стереопара
Порядок ракурсов: левый ракурс первый
Качество: BDRip
Контейнер: MKV
Видео кодек: x264
Аудио кодек: AC3
Видео: MPEG-4 AVC, 11,5 Мбит/сек, 1920х1080, 23,976 кадр/с
Аудио: Русский / AC3 / 48 KHz / 2 канала / 192 Кбит/сек (Профессиональный многоголосый [online movies])

Скриншоты

MediaInfo

Общее
Уникальный идентификатор : 242767263567830569887286892193048482903 (0xB6A34634BD0468DCB10C81465A98D457)
Полное имя : D:\Download\Julia X 3D 2011 BDRip 1080p halfSbS [3d-tracker.ru].mkv
Формат : Matroska
Версия формата : Version 2
Размер файла : 7,68 Гбайт
Продолжительность : 1 ч. 31 м.
Общий поток : 11,9 Мбит/сек
Название фильма : 3d-tracker.ru
Дата кодирования : UTC 2014-04-07 13:27:22
Программа кодирования : mkvmerge v4.0.0 ('The Stars were mine') сборка от Jun 6 2010 16:18:42
Библиотека кодирования : libebml v1.0.0 + libmatroska v1.0.0
Видео
Идентификатор : 1
Формат : AVC
Формат/Информация : Advanced Video Codec
Профиль формата : High@L4.1
Параметр CABAC формата : Да
Параметр ReFrames формата : 2 кадра
Идентификатор кодека : V_MPEG4/ISO/AVC
Продолжительность : 1 ч. 31 м.
Битрейт : 11,5 Мбит/сек
Ширина : 1920 пикселей
Высота : 1080 пикселей
Соотношение сторон : 16:9
Режим частоты кадров : Постоянный
Частота кадров : 23,976 кадра/сек
Цветовое пространство : YUV
Субдискретизация насыщенности : 4:2:0
Битовая глубина : 8 бит
Тип развёртки : Прогрессивная
Бит/(Пиксели*Кадры) : 0.232
Размер потока : 7,40 Гбайт (96%)
Заголовок : 3d-tracker.ru
Библиотека кодирования : x264 core
Язык : English
Default : Нет
Forced : Нет
Основные цвета : BT.709
Характеристики трансфера : BT.709
Коэффициенты матрицы : BT.709
Аудио
Идентификатор : 2
Формат : AC-3
Формат/Информация : Audio Coding 3
Расширение режима : CM (complete main)
Параметр Endianness формата : Big
Идентификатор кодека : A_AC3
Продолжительность : 1 ч. 31 м.
Вид битрейта : Постоянный
Битрейт : 192 Кбит/сек
Каналы : 2 канала
Расположение каналов : Front: L R
Частота : 48,0 КГц
Битовая глубина : 16 бит
Метод сжатия : С потерями
Размер потока : 126 Мбайт (2%)
Заголовок : 3d-tracker.ru
Язык : Russian
Default : Нет
Forced : Да
Меню
00:00:00.000 : en:00:00:00.000
00:08:47.819 : en:00:08:47.819
00:17:22.333 : en:00:17:22.333
00:22:38.899 : en:00:22:38.899
00:31:29.596 : en:00:31:29.596
00:40:31.304 : en:00:40:31.304
00:46:01.717 : en:00:46:01.717
00:52:41.450 : en:00:52:41.450
00:59:38.950 : en:00:59:38.950
01:09:19.781 : en:01:09:19.781
01:15:26.230 : en:01:15:26.230
01:22:01.125 : en:01:22:01.125
[Профиль] [ЛС]
Кто просматривает тему:

Показать сообщения:    

Текущее время: Сегодня 00:19

Часовой пояс: GMT



Вы не можете начинать темы
Вы не можете отвечать на сообщения
Вы не можете редактировать свои сообщения
Вы не можете удалять свои сообщения
Вы не можете голосовать в опросах
Вы не можете прикреплять файлы к сообщениям
Вы не можете скачивать файлы