Юлия Икс в 3Д / Julia X 3D (П.Дж. Петтьетте / P.J. Pettiette) [2011, ужасы, триллер, комедия, BDrip-AVC] Half OverUnder / Вертикальная анаморфная стереопара

 
Автор Сообщение

TorrentFilm ®

Пол:

Стаж: 2 года

Сообщений: 7741



Награды: Нет

Торрент-статистика

Создавать темы 01-Янв-2016 00:09

[Цитировать]

Юлия Икс в 3Д / Julia X 3D
Год выпуска: 2011
Страна: США
Жанр: ужасы, триллер, комедия
Продолжительность: 01:32:00
Перевод: Любительский (многоголосый закадровый) ViruseProject
Режиссер: П.Дж. Петтьетте / P.J. Pettiette-В ролях:Алисия Ли Уиллис,Джоэль Мур,Винг Реймз,Саксон Шарбино,Грегг Браззел,
Мэг Рэйнс,Kasi Scarbrought Corley,Сара Дункан.-Описание:
Неуловимый серийный маньяк орудует в городе, знакомится со своими будущими жертвами через интернет. После встречается, похищает, пытает, клеймит их по алфавиту, убивает и избавляется от тел разным способом, при этом постоянно слушая в плеере любимого исполнителя. И вот она — очередная жертва, все как обычно: знакомство, похищение, небольшие пытки, клеймо, но… Но новенькая девочка оказалась не такой уж простушкой и умудряется сбежать от него, при это не раз побив его и давая постоянно отпор. Так кто же она жертва или?

Техн. детали съёмки

Премьера: 24 сентября 2011
Бюджет: $4 000 000
Кассовые сборы: ?
Релиз на DVD и Blu-Ray: ?

. .
Проверено на встроенном плейере ТВ LG LW 650S
--Качество: BDrip
Контейнер: MKV
Формат 3D: Anamorph OverUnder / Вертикальная анаморфная стереопара
Порядок ракурсов: левый ракурс первый
Видео кодек: x264
Аудио кодек: AC3-Видео: AVC / 23,976 fps / 1920х1080p / 15,6 Mbps
Аудио 1: - Русский / AC3 / 48 KHz / 5.1 ch / 384 Kbps (MVO)
Аудио 2: - Английский / AC3 / 48 KHz / 5.1 ch / 640 Kbps
Субтитры: нет

MediaInfo

Формат : Matroska
Версия формата : Version 2
Размер файла : 10,9 Гбайт
Продолжительность : 1 ч. 32 м.
Общий поток : 17,0 Мбит/сек
Название фильма : Julia.X.(3D)2011 3D-RuGroup
Дата кодирования : UTC 2012-11-04 19:33:13
Программа кодирования : mkvmerge v5.8.0 ('No Sleep / Pillow') built on Sep 2 2012 15:37:04
Библиотека кодирования : libebml v1.2.3 + libmatroska v1.3.0
Видео
Идентификатор : 1
Формат : AVC
Формат/Информация : Advanced Video Codec
Профиль формата : High@L4.1
Параметр CABAC формата : Да
Параметр ReFrames формата : 4 кадра
Идентификатор кодека : V_MPEG4/ISO/AVC
Продолжительность : 1 ч. 32 м.
Битрейт : 15,6 Мбит/сек
Ширина : 1920 пикселей
Высота : 1080 пикселей
Соотношение сторон : 16:9
Режим частоты кадров : Постоянный
Частота кадров : 23,976 кадра/сек
Цветовое пространство : YUV
Субдискретизация насыщенности : 4:2:0
Битовая глубина : 8 бит
Тип развёртки : Прогрессивная
Бит/(Пиксели*Кадры) : 0.315
Размер потока : 10,1 Гбайт (92%)
Заголовок : by m@rik05
Библиотека кодирования : x264 core 116 r2074 2641b9e
Настройки программы : cabac=1 / ref=4 / deblock=1:-3:-3 / analyse=0x3:0x133 / me=umh / subme=9 / psy=1 / psy_rd=1.00:0.05 / mixed_ref=1 / me_range=16 / chroma_me=1 / trellis=2 / 8x8dct=1 / cqm=0 / deadzone=21,11 / fast_pskip=1 / chroma_qp_offset=-3 / threads=12 / sliced_threads=0 / nr=0 / decimate=1 / interlaced=0 / bluray_compat=0 / constrained_intra=0 / bframes=6 / b_pyramid=2 / b_adapt=2 / b_bias=0 / direct=3 / weightb=1 / open_gop=0 / weightp=2 / keyint=250 / keyint_min=23 / scenecut=40 / intra_refresh=0 / rc_lookahead=60 / rc=crf / mbtree=1 / crf=18.0 / qcomp=0.60 / qpmin=10 / qpmax=69 / qpstep=4 / vbv_maxrate=40000 / vbv_bufsize=40000 / crf_max=0.0 / nal_hrd=none / frame-packing=4 / ip_ratio=1.40 / aq=1:0.70
Язык : English
Default : Да
Forced : Нет
Аудио #1
Идентификатор : 2
Формат : AC-3
Формат/Информация : Audio Coding 3
Расширение режима : CM (complete main)
Параметр Endianness формата : Big
Идентификатор кодека : A_AC3
Продолжительность : 1 ч. 32 м.
Вид битрейта : Постоянный
Битрейт : 384 Кбит/сек
Каналы : 6 каналов
Расположение каналов : Front: L C R, Side: L R, LFE
Частота : 48,0 КГц
Битовая глубина : 16 бит
Метод сжатия : С потерями
Размер потока : 253 Мбайт (2%)
Заголовок : AC3 5.1 @ 384 kbps (MVO)любительский многоголосый
Язык : Russian
Default : Да
Forced : Нет
Аудио #2
Идентификатор : 3
Формат : AC-3
Формат/Информация : Audio Coding 3
Расширение режима : CM (complete main)
Параметр Endianness формата : Big
Идентификатор кодека : A_AC3
Продолжительность : 1 ч. 32 м.
Вид битрейта : Постоянный
Битрейт : 640 Кбит/сек
Каналы : 6 каналов
Расположение каналов : Front: L C R, Side: L R, LFE
Частота : 48,0 КГц
Битовая глубина : 16 бит
Метод сжатия : С потерями
Размер потока : 421 Мбайт (4%)
Заголовок : AC3 5.1 @ 640 kbps оригинал
Язык : English
Default : Нет
Forced : Нет
Меню
00:00:00.000 : en:00:00:00.000
00:08:47.819 : en:00:08:47.819
00:17:22.333 : en:00:17:22.333
00:22:38.899 : en:00:22:38.899
00:31:29.596 : en:00:31:29.596
00:40:31.304 : en:00:40:31.304
00:46:01.717 : en:00:46:01.717
00:52:41.450 : en:00:52:41.450
00:59:38.950 : en:00:59:38.950
01:09:19.781 : en:01:09:19.781
01:15:26.230 : en:01:15:26.230
01:22:01.125 : en:01:22:01.125

Скриншоты


[Профиль] [ЛС]
Кто просматривает тему:

Показать сообщения:    

Текущее время: Сегодня 10:44

Часовой пояс: GMT



Вы не можете начинать темы
Вы не можете отвечать на сообщения
Вы не можете редактировать свои сообщения
Вы не можете удалять свои сообщения
Вы не можете голосовать в опросах
Вы не можете прикреплять файлы к сообщениям
Вы не можете скачивать файлы