Юленька (2009) BDRip 1080p

 
Автор Сообщение

sergej644 ®

Пол:

Стаж: 4 года 11 месяцев

Сообщений: 6038

Откуда: Soviet Union



Награды: Нет

Торрент-статистика

Создавать темы 27-Янв-2015 04:31

[Цитировать]

Информация о фильме
Название: Юленька
Год выхода: 2009
Жанр: ужасы, триллер, драма
Режиссер: Александр Стриженов
В ролях: Дарья Балабанова, Марат Башаров, Диана Шпак, Оксана Лаврентьева, Ирина Купченко, Сергей Греков, Анна Казючиц, Александр Стриженов, Хельга Филиппова, Павел Пархоменко...
О фильме:
Андрей Белов переезжает с семьей из столицы в провинциальный город. Ради здоровья любимой он меняет работу университетского преподавателя на место классного руководителя в женской гимназии. Белов быстро понимает — с его классом что-то не так. За круговой порукой молчания скрывается странная и страшная тайна. Эти пятиклассницы не играют в куклы — они играют человеческими жизнями. Сигналом к действию для Андрея станет записка «Спасите нас!», найденная в школьном дневнике. Постепенно жизнь Белова превращается в кошмар. Все его чувства, эмоции и поступки искажаются под призмой страха. Зло отравляет все его существование, медленно и изощренно отбирает все самое дорогое. И удастся ли ему выбраться из этого кошмара, зависит только от одной маленькой девочки. А она просто хочет, чтобы мама была счастлива

Страна: Россия
Продолжительность: 01:42:23
Перевод: Оригинал
Файл
Кодек: H264
Качество: BDRip 1080p
Видео: 1888x1080, 5720 Kbps, 23.976 fps
Звук: 48 kHz, AC3, 6ch, 384 kbps
Субтитры: Нет
Семпл

MI

Общее
Формат : Matroska
Версия формата : Version 2
Размер файла : 4,36 Гбайт
Продолжительность : 1 ч. 42 м.
Общий поток : 6090 Кбит/сек
Название фильма : Юленька (2009) BDRip 1080p от Dimok
Дата кодирования : UTC 2012-02-14 05:16:31
Программа кодирования : mkvmerge v5.2.1 ('A Far Off Place') built on Jan 2 2012 23:21:10
Библиотека кодирования : libebml v1.2.3 + libmatroska v1.3.0
Видео
Идентификатор : 1
Формат : AVC
Формат/Информация : Advanced Video Codec
Профиль формата : High@L4.1
Параметр CABAC формата : Да
Параметр ReFrames формата : 4 кадра
Идентификатор кодека : V_MPEG4/ISO/AVC
Продолжительность : 1 ч. 42 м.
Битрейт : 5720 Кбит/сек
Ширина : 1888 пикселей
Высота : 1080 пикселей
Соотношение сторон : 16:9
Частота кадров : 23,976 кадра/сек
Цветовое пространство : YUV
Субдискретизация насыщенности : 4:2:0
Битовая глубина : 8 бит
Тип развёртки : Прогрессивная
Бит/(Пиксели*Кадры) : 0.117
Размер потока : 3,99 Гбайт (92%)
Библиотека кодирования : x264 core 92 r1510 33d382a
Настройки программы : cabac=1 / ref=4 / deblock=1:0:0 / analyse=0x3:0x133 / me=umh / subme=10 / psy=1 / psy_rd=1.00:0.10 / mixed_ref=1 / me_range=32 / chroma_me=1 / trellis=2 / 8x8dct=1 / cqm=0 / deadzone=21,11 / fast_pskip=0 / chroma_qp_offset=-3 / threads=6 / sliced_threads=0 / nr=0 / decimate=1 / interlaced=0 / constrained_intra=0 / bframes=6 / b_pyramid=2 / b_adapt=2 / b_bias=0 / direct=3 / wpredb=1 / wpredp=2 / keyint=240 / keyint_min=24 / scenecut=40 / intra_refresh=0 / rc_lookahead=60 / rc=2pass / mbtree=1 / bitrate=5720 / ratetol=1.0 / qcomp=0.65 / qpmin=10 / qpmax=51 / qpstep=4 / cplxblur=20.0 / qblur=0.5 / ip_ratio=1.40 / aq=1:1.00
Язык : Russian
Аудио
Идентификатор : 2
Формат : AC-3
Формат/Информация : Audio Coding 3
Расширение режима : CM (complete main)
Идентификатор кодека : A_AC3
Продолжительность : 1 ч. 42 м.
Вид битрейта : Постоянный
Битрейт : 384 Кбит/сек
Каналы : 6 каналов
Расположение каналов : Front: L C R, Side: L R, LFE
Частота : 48,0 КГц
Битовая глубина : 16 бит
Метод сжатия : С потерями
Задержка видео : 25 мс.
Размер потока : 281 Мбайт (6%)
Заголовок : Оригинал
Язык : Russian
[Профиль] [ЛС]
Показать сообщения:    

Текущее время: Сегодня 20:04

Часовой пояс: GMT



Вы не можете начинать темы
Вы не можете отвечать на сообщения
Вы не можете редактировать свои сообщения
Вы не можете удалять свои сообщения
Вы не можете голосовать в опросах
Вы не можете прикреплять файлы к сообщениям
Вы не можете скачивать файлы