Юленька / Yulenka (Александр Стриженов) [2009, Россия, ужасы, триллер, драма, BDRip 1080p]

 
Автор Сообщение

reversefile ®

Пол:

Стаж: 4 года 5 месяцев

Сообщений: 842

Откуда: ReverseFile.org



Награды: Нет

Торрент-статистика

Создавать темы 13-Авг-2014 18:29

[Цитировать]

Юленька / Yulenka
Страна: Россия
Жанр: ужасы, триллер, драма
Год выпуска: 2009
Продолжительность: 01:42:29
Оригинальная аудиодорожка: русский
Cубтитры: русские (полные, от КОРНЕЙ)-Режиссер: Александр Стриженов
В ролях: Марат Башаров (Андрей Белов), Дарья Балабанова (Юленька), Оксана Лаврентьева (Лера), Ирина Купченко (Тамара Иосифовна), Анна Казючиц (Анна), Александра Дыхне (Настя), Сергей Греков (Ковальчик), Хельга Филиппова (Юлия Ялинская), Александр Стриженов (Борин), Диана Шпак (Марина Шимадина), Софья Максимча (Кира Кононович), Мария Дунаевская (Света Аникей), Маргарита Комлева (Яна Кленина), Марго Силкина (Сонечка Ялинская), Дарья Добрынина (Люба Гаврилова), Зураб Гурцкая (патологоанатом Иванов), Александр Стариков (главврач психбольницы), Сергей Габриэлян (Кирсанов)
Описание: Андрей Белов переезжает с семьей из столицы в провинциальный город. Ради здоровья любимой он меняет работу университетского преподавателя на место классного руководителя в женской гимназии. Белов быстро понимает - с его классом что-то не так. За круговой порукой молчания скрывается странная и страшная тайна. Эти пятиклассницы не играют в куклы - они играют человеческими жизнями. Сигналом к действию для Андрея станет записка "Спасите нас!", найденная в школьном дневнике.
Постепенно жизнь Белова превращается в кошмар. Все его чувства, эмоции и поступки искажаются под призмой страха. Зло отравляет все его существование, медленно и изощренно отбирает все самое дорогое. И удастся ли ему выбраться из этого кошмара, зависит только от одной маленькой девочки. А она просто хочет, чтобы мама была счастлива.-СЭМПЛ
Тип релиза: BDRip 1080p
Исходник: Blu-Ray.1080p
Контейнер: MKV
Видео: 1884x1080p / 23.976 fps / 16:9 / High Profile 4.1 / AVC / ~ 13.5 Mbps
Аудио: AC3 / 448 Kbps / 5.1 / 48 kHz / Russian
Формат субтитров: softsub (SRT)-IMDB * КиноПоиск

MediaInfo / x264 log

General
Complete name : Yulenjka.2009.BDRip.1080p.RUS.mkv
Format : Matroska
Format version : Version 2
File size : 9.97 GiB
Duration : 1h 42mn
Overall bit rate : 13.9 Mbps
Encoded date : UTC 2013-06-02 10:51:00
Writing application : mkvmerge v5.4.0 ('Piper') built on Mar 10 2012 13:34:39
Writing library : libebml v1.2.3 + libmatroska v1.3.0
Video
ID : 1
Format : AVC
Format/Info : Advanced Video Codec
Format profile : High@L4.1
Format settings, CABAC : Yes
Format settings, ReFrames : 4 frames
Codec ID : V_MPEG4/ISO/AVC
Duration : 1h 42mn
Bit rate : 13.5 Mbps
Width : 1 884 pixels
Height : 1 080 pixels
Display aspect ratio : 16:9
Frame rate : 23.976 fps
Color space : YUV
Chroma subsampling : 4:2:0
Bit depth : 8 bits
Scan type : Progressive
Bits/(Pixel*Frame) : 0.277
Stream size : 9.45 GiB (95%)
Title : Yulenjka 2009
Writing library : x264 core 133 r2334 a3ac64b
Encoding settings : cabac=1 / ref=4 / deblock=1:-3:-3 / analyse=0x3:0x113 / me=umh / subme=11 / psy=1 / psy_rd=1.10:0.00 / mixed_ref=1 / me_range=24 / chroma_me=1 / trellis=2 / 8x8dct=1 / cqm=0 / deadzone=21,11 / fast_pskip=1 / chroma_qp_offset=-2 / threads=6 / lookahead_threads=1 / sliced_threads=0 / nr=0 / decimate=1 / interlaced=0 / bluray_compat=0 / constrained_intra=0 / bframes=9 / b_pyramid=2 / b_adapt=2 / b_bias=0 / direct=3 / weightb=1 / open_gop=0 / weightp=2 / keyint=250 / keyint_min=23 / scenecut=40 / intra_refresh=0 / rc_lookahead=60 / rc=2pass / mbtree=1 / bitrate=13500 / ratetol=1.0 / qcomp=0.60 / qpmin=0 / qpmax=69 / qpstep=4 / cplxblur=20.0 / qblur=0.5 / ip_ratio=1.40 / aq=1:0.90
Default : Yes
Forced : No
Audio
ID : 2
Format : AC-3
Format/Info : Audio Coding 3
Mode extension : CM (complete main)
Format settings, Endianness : Big
Codec ID : A_AC3
Duration : 1h 42mn
Bit rate mode : Constant
Bit rate : 448 Kbps
Channel(s) : 6 channels
Channel positions : Front: L C R, Side: L R, LFE
Sampling rate : 48.0 KHz
Bit depth : 16 bits
Compression mode : Lossy
Stream size : 328 MiB (3%)
Title : RUS AC3 448 Kbps 6ch original
Language : Russian
Default : Yes
Forced : No
Text
ID : 3
Format : UTF-8
Codec ID : S_TEXT/UTF8
Codec ID/Info : UTF-8 Plain Text
Title : Subtitles RUS
Language : Russian
Default : No
Forced : No
Menu
00:00:00.000 : :Chapter 01
00:05:06.515 : :Chapter 02
00:09:14.012 : :Chapter 03
00:14:46.761 : :Chapter 04
00:20:28.144 : :Chapter 05
00:24:36.600 : :Chapter 06
00:30:35.584 : :Chapter 07
00:33:31.218 : :Chapter 08
00:38:10.455 : :Chapter 09
00:42:58.201 : :Chapter 10
00:49:35.431 : :Chapter 11
00:54:19.047 : :Chapter 12
00:57:36.328 : :Chapter 13
01:02:30.205 : :Chapter 14
01:06:22.145 : :Chapter 15
01:13:15.600 : :Chapter 16
01:18:45.512 : :Chapter 17
01:24:20.013 : :Chapter 18
01:28:55.205 : :Chapter 19
01:34:39.507 : :Chapter 20
01:42:28.642 : :Chapter 21-x264 [info]: frame I:1013 Avg QP:16.16 size:271527
x264 [info]: frame P:32058 Avg QP:19.22 size:124351
x264 [info]: frame B:114355 Avg QP:22.00 size: 53336
x264 [info]: consecutive B-frames: 2.0% 2.8% 8.6% 19.2% 16.6% 37.5% 9.2% 0.5% 1.5% 2.1%

Скриншот с названием

Скриншоты


Сравнение с исходником

http://screenshotcomparison.com/comparison/26588/
[Профиль] [ЛС]
Кто просматривает тему:

Форум Тема Автор Размер
Фильмы (HD Rips | 720p, 1080p) Юленька (2009) BDRip 1080p sergej644 4.36 GB
Фильмы (HD DVD, Blu-ray и BDRemux) Юленька (2009) Blu-ray 1080p BOSS 22.22 GB
Показать сообщения:    

Текущее время: Сегодня 22:10

Часовой пояс: GMT



Вы не можете начинать темы
Вы не можете отвечать на сообщения
Вы не можете редактировать свои сообщения
Вы не можете удалять свои сообщения
Вы не можете голосовать в опросах
Вы не можете прикреплять файлы к сообщениям
Вы не можете скачивать файлы