Южный централ / South Central (Стив Андерсон / Stephen Milburn Anderson) [1992, США, драма, криминал, WEB-DL 1080p] AVO (Иванов) + Original Eng

 
Автор Сообщение

reversefile ®

Пол:

Стаж: 4 года 5 месяцев

Сообщений: 842

Откуда: ReverseFile.org



Награды: Нет

Торрент-статистика

Создавать темы 25-Июл-2014 01:05

[Цитировать]

Южный централ / South Central Страна: США
Студия: Enchantment Films Inc., Ixtlan, Monument Pictures
Жанр: драма, криминал
Год выпуска: 1992
Продолжительность: 01:38:37
Перевод : Авторский (одноголосый закадровый) Михаил Иванов
Cубтитры: нет
Оригинальная аудиодорожка: Английский
Режиссер: Стив Андерсон / Stephen Milburn Anderson
В ролях: Гленн Пламмер, Байрон Кит Миннс, ЛаРита Шелби, Кевин Бест, Кристиан Коулмэн, Старлетта Дюпуа, Айвори Оушн, Лекси Д. Бигэм, Винсент Крэйг Дюпре, Карл Лабмли
Описание: Юный гангстер знакомится в тюрьме с парнем, чьи взгляды на жизнь меняют его собственное мировоззрение…

Качество видео:WEB-DL 1080p
Формат видео: MKV
Видео кодек: H264
Аудио кодек: AC3
Видео: 1916x1076 (1.78:1), 23,976 fps, ~5241 kbps avg, 0.106 bit/pixel
Аудио 1: 48 kHz, AC3 Dolby Digital, 2/0 (L,R) ch, ~192 kbps - Иванов
Аудио 2: 48 kHz, AC3 Dolby Digital, 2/0 (L,R) ch, ~192 kbps - Оригинал

MediaInfo

Полное имя : Южный Централ 1992.mkv
Формат : Matroska
Версия формата : Version 4 / Version 2
Размер файла : 3,95 Гбайт
Продолжительность : 1 ч. 38 м.
Общий поток : 5739 Кбит/сек
Дата кодирования : UTC 2014-07-22 15:08:56
Программа кодирования : mkvmerge v6.5.0 ('Isn't she lovely') built on Oct 20 2013 12:50:05
Библиотека кодирования : libebml v1.3.0 + libmatroska v1.4.1
Видео
Идентификатор : 1
Формат : AVC
Формат/Информация : Advanced Video Codec
Профиль формата : High@L4.0
Параметр CABAC формата : Да
Параметр ReFrames формата : 4 кадра
Идентификатор кодека : V_MPEG4/ISO/AVC
Продолжительность : 1 ч. 38 м.
Битрейт : 5241 Кбит/сек
Ширина : 1916 пикселей
Высота : 1076 пикселей
Соотношение сторон : 16:9
Режим частоты кадров : Постоянный
Частота кадров : 23,976 кадра/сек
Цветовое пространство : YUV
Субдискретизация насыщенности : 4:2:0
Битовая глубина : 8 бит
Тип развёртки : Прогрессивная
Бит/(Пиксели*Кадры) : 0.106
Размер потока : 3,61 Гбайт (91%)
Язык : English
Default : Да
Forced : Нет
Основные цвета : BT.709
Характеристики трансфера : BT.709
Коэффициенты матрицы : BT.709
Аудио #1
Идентификатор : 2
Формат : AC-3
Формат/Информация : Audio Coding 3
Расширение режима : CM (complete main)
Параметр Endianness формата : Big
Идентификатор кодека : A_AC3
Продолжительность : 1 ч. 38 м.
Вид битрейта : Постоянный
Битрейт : 192 Кбит/сек
Каналы : 2 канала
Расположение каналов : Front: L R
Частота : 48,0 КГц
Битовая глубина : 16 бит
Метод сжатия : С потерями
Размер потока : 135 Мбайт (3%)
Язык : Russian
Default : Да
Forced : Нет
Аудио #2
Идентификатор : 3
Формат : AC-3
Формат/Информация : Audio Coding 3
Расширение режима : CM (complete main)
Параметр Endianness формата : Big
Идентификатор кодека : A_AC3
Продолжительность : 1 ч. 38 м.
Вид битрейта : Постоянный
Битрейт : 192 Кбит/сек
Каналы : 2 канала
Расположение каналов : Front: L R
Частота : 48,0 КГц
Битовая глубина : 16 бит
Метод сжатия : С потерями
Размер потока : 135 Мбайт (3%)
Язык : English
Default : Нет
Forced : Нет
Меню
00:00:00.000 : en:Credits.
00:01:27.000 : en:Back on the streets.
00:03:14.000 : en:Home to Carole - and Genie Lamp.
00:06:23.000 : en:Father and son.
00:09:18.000 : en:Organizing the Deuces.
00:12:27.000 : en:A night out.
00:15:45.000 : en:Genie Lamp's threat.
00:18:50.000 : en:Getting Genie Lamp.
00:21:40.000 : en:Marked man.
00:23:12.000 : en:Taken for a ride.
00:26:58.000 : en:What Bobby will miss.
00:30:27.000 : en:A decade later: J-Rock recruited.
00:34:49.000 : en:Rescuing Loco; the truth about Ray Ray.
00:40:05.000 : en:Caught in the act.
00:42:10.000 : en:Father and son...by themselves.
00:46:53.000 : en:Honkyball.
00:49:22.000 : en:Aryan reprisal; rescuing Bobby.
00:53:32.000 : en:I take care of myself.
00:54:42.000 : en:Be there for our children.
00:59:04.000 : en:Goodbye to Nurse Shelly.
01:01:38.000 : en: Deuce here!
01:02:38.000 : en:Lights come on.
01:05:32.000 : en:A quiz and a blessing.
01:07:40.000 : en:Save his life.
01:08:48.000 : en:Return home.
01:13:31.000 : en:Bobby visits Jimmie.
01:20:36.000 : en:Jimmie runs away.
01:23:22.000 : en:Confronting Ray Ray.
01:26:50.000 : en:Finger on the trigger.
01:31:29.000 : en:Starting over the right way.
01:35:36.000 : en: End Credits (It's Alright).

Скриншоты

[Профиль] [ЛС]
Показать сообщения:    

Текущее время: Сегодня 09:09

Часовой пояс: GMT



Вы не можете начинать темы
Вы не можете отвечать на сообщения
Вы не можете редактировать свои сообщения
Вы не можете удалять свои сообщения
Вы не можете голосовать в опросах
Вы не можете прикреплять файлы к сообщениям
Вы не можете скачивать файлы