Южные ночи (Валентина Власова) [2012, Россия, мелодрама, Blu-ray disc 1080i] [RUS]

 
Автор Сообщение

TorrentFilm ®

Пол:

Стаж: 2 года

Сообщений: 7741



Награды: Нет

Торрент-статистика

Создавать темы 01-Янв-2016 00:06

[Цитировать]

Южные ночи
Страна: Россия
Жанр: мелодрама
Год выпуска: 2012
Продолжительность: 01:38:19
Cубтитры: нет
Режиссёр: Валентина Власова
В ролях: Ксения Роменкова, Артем Ткаченко, Алексей Колубков, Екатерина Сахарова, Артем Артемьев
Описание: Красавица Юлия целиком сосредоточена на карьере. Ради очередного повышения она берется разрешить сложную задачу - выкупить виноградник. Помогает Юле ее жених Кирилл, однако владелец виноградника Виктор вовсе не намерен его продавать.
И вот в один далеко не прекрасный день Юлия оказывается посреди южной приморской глуши, на шпильках и в деловом костюме. Но и это еще полбеды. Хозяин виноградника решает испытать на прочность городскую красотку и, притворившись "тупым мужланом", подвергает ее изощренным испытаниям...

Тип релиза: Blu-ray 1080i
Контейнер : BDMV
Видео: MPEG-4 AVC / ~28483 kbps / 1920x1080 / 25 fps / 16:9
Аудио1: Dolby Digital / 2.0 / 48 kHz / 192 kbps
Аудио2: LPCM / 2.0 / 48 kHz / ~2304 kbps / 24-bit

BDInfo

Disc Title: SOUTHERN_NIGHTS
Disc Size: 24 209 151 188 bytes
Protection: AACS
BD-Java: No
Extras: 50Hz Content
BDInfo: 0.5.8
Notes:
BDINFO HOME:
Cinema Squid
http://www.cinemasquid.com/blu-ray/tools/bdinfo
INCLUDES FORUMS REPORT FOR:
AVS Forum Blu-ray Audio and Video Specifications Thread
http://www.avsforum.com/avs-vb/showthread.php?t=1155731
********************
PLAYLIST: 00000.MPLS
********************
Total   Video
Title                                                           Codec   Length  Movie Size      Disc Size       Bitrate Bitrate Main Audio Track                          Secondary Audio Track
-----                                                           ------  ------- --------------  --------------  ------- ------- ------------------                        ---------------------
00000.MPLS                                                      AVC     1:38:19 23 961 937 920  24 209 151 188  32,49   28,48   DD AC3 2.0 192Kbps                        LPCM 2.0 2304Kbps (48kHz/24-bit)
DISC INFO:
Disc Title:     SOUTHERN_NIGHTS
Disc Size:      24 209 151 188 bytes
Protection:     AACS
BD-Java:        No
Extras:         50Hz Content
BDInfo:         0.5.8
PLAYLIST REPORT:
Name:                   00000.MPLS
Length:                 1:38:19.400 (h:m:s.ms)
Size:                   23 961 937 920 bytes
Total Bitrate:          32,49 Mbps
VIDEO:
Codec                   Bitrate             Description
-----                   -------             -----------
MPEG-4 AVC Video        28483 kbps          1080i / 25 fps / 16:9 / High Profile 4.1
AUDIO:
Codec                           Language        Bitrate         Description
-----                           --------        -------         -----------
Dolby Digital Audio             Russian         192 kbps        2.0 / 48 kHz / 192 kbps
LPCM Audio                      Russian         2304 kbps       2.0 / 48 kHz / 2304 kbps / 24-bit
FILES:
Name            Time In         Length          Size            Total Bitrate
----            -------         ------          ----            -------------
00000.M2TS      0:00:00.000     1:38:19.000     23 961 876 480  32 496
00001.M2TS      1:38:19.000     0:00:00.399     61 440          723
CHAPTERS:
Number          Time In         Length          Avg Video Rate  Max 1-Sec Rate  Max 1-Sec Time  Max 5-Sec Rate  Max 5-Sec Time  Max 10Sec Rate  Max 10Sec Time  Avg Frame Size  Max Frame Size  Max Frame Time
------          -------         ------          --------------  --------------  --------------  --------------  --------------  --------------  --------------  --------------  --------------  --------------
1               0:00:00.000     0:00:00.360     25 391 kbps     0 kbps          00:00:00.000    0 kbps          00:00:00.000    0 kbps          00:00:00.000    114 258 bytes   214 005 bytes   00:00:00.279
2               0:00:00.360     0:05:17.520     27 801 kbps     48 297 kbps     00:00:05.919    36 593 kbps     00:00:05.279    32 526 kbps     00:03:44.120    139 007 bytes   896 758 bytes   00:00:15.000
3               0:05:17.880     0:05:54.640     28 947 kbps     51 263 kbps     00:08:23.079    36 725 kbps     00:08:19.680    33 805 kbps     00:07:39.280    144 737 bytes   924 348 bytes   00:08:33.599
4               0:11:12.520     0:09:06.360     28 304 kbps     47 247 kbps     00:19:08.560    36 764 kbps     00:14:31.440    33 272 kbps     00:14:26.400    141 518 bytes   928 586 bytes   00:14:11.839
5               0:20:18.880     0:05:40.159     29 091 kbps     51 108 kbps     00:24:58.320    38 915 kbps     00:25:28.639    35 325 kbps     00:25:26.480    145 453 bytes   793 866 bytes   00:24:59.080
6               0:25:59.040     0:07:53.199     27 065 kbps     59 529 kbps     00:27:44.280    36 044 kbps     00:26:30.400    33 990 kbps     00:28:08.360    135 325 bytes   940 934 bytes   00:31:29.320
7               0:33:52.239     0:06:12.200     28 147 kbps     45 361 kbps     00:39:29.360    34 649 kbps     00:35:29.520    33 257 kbps     00:38:33.280    140 733 bytes   939 783 bytes   00:36:12.600
8               0:40:04.440     0:04:42.719     29 485 kbps     48 984 kbps     00:44:34.400    38 057 kbps     00:44:32.960    34 914 kbps     00:44:30.920    147 427 bytes   738 350 bytes   00:40:06.880
9               0:44:47.160     0:09:16.320     28 753 kbps     45 917 kbps     00:49:37.360    34 489 kbps     00:52:28.440    32 831 kbps     00:48:03.200    143 766 bytes   940 762 bytes   00:47:54.400
10              0:54:03.480     0:05:57.919     27 987 kbps     54 014 kbps     00:56:08.920    38 055 kbps     00:58:50.880    34 664 kbps     00:58:51.080    139 937 bytes   864 002 bytes   00:54:25.440
11              1:00:01.400     0:08:59.480     29 175 kbps     48 278 kbps     01:00:04.160    37 981 kbps     01:03:46.040    36 268 kbps     01:03:43.880    145 874 bytes   898 941 bytes   01:07:24.160
12              1:09:00.880     0:04:57.199     28 246 kbps     41 794 kbps     01:10:48.400    33 659 kbps     01:10:47.400    32 220 kbps     01:12:39.680    141 228 bytes   941 067 bytes   01:12:14.800
13              1:13:58.080     0:04:27.440     29 843 kbps     51 799 kbps     01:14:24.680    37 789 kbps     01:17:53.960    35 617 kbps     01:17:49.960    149 215 bytes   910 171 bytes   01:18:25.520
14              1:18:25.520     0:06:26.399     27 864 kbps     56 829 kbps     01:23:32.880    37 101 kbps     01:24:23.520    34 224 kbps     01:24:19.920    139 320 bytes   922 197 bytes   01:24:42.479
15              1:24:51.920     0:05:07.880     29 050 kbps     45 693 kbps     01:26:04.240    35 678 kbps     01:28:17.360    33 645 kbps     01:26:52.040    145 252 bytes   896 874 bytes   01:26:04.720
16              1:29:59.800     0:06:24.159     28 611 kbps     48 051 kbps     01:36:12.880    35 362 kbps     01:35:41.000    33 546 kbps     01:30:37.360    143 056 bytes   912 545 bytes   01:31:28.200
17              1:36:23.960     0:01:55.439     27 099 kbps     45 343 kbps     01:36:28.000    35 050 kbps     01:36:26.160    33 705 kbps     01:37:23.160    135 917 bytes   822 455 bytes   01:36:28.960
STREAM DIAGNOSTICS:
File            PID             Type            Codec           Language                Seconds                 Bitrate                 Bytes           Packets
----            ---             ----            -----           --------                --------------          --------------          -------------   -----
00000.M2TS      4113 (0x1011)   0x1B            AVC                                     5898,880                28 487                  21 004 982 922  114 243 683
00000.M2TS      4352 (0x1100)   0x81            AC3             rus (Russian)           5898,880                192                     141 575 424     921 715
00000.M2TS      4353 (0x1101)   0x80            LPCM            rus (Russian)           5898,880                2 310                   1 703 631 200   9 438 400
00001.M2TS      4113 (0x1011)   0x1B            AVC                                     0                       0                       2 940           20
00001.M2TS      4352 (0x1100)   0x81            AC3             rus (Russian)           0                       0                       20 480          120
00001.M2TS      4353 (0x1101)   0x81            AC3             rus (Russian)           0                       0                       20 480          120
QUICK SUMMARY:
Disc Title: SOUTHERN_NIGHTS
Disc Size: 24 209 151 188 bytes
Protection: AACS
BD-Java: No
Playlist: 00000.MPLS
Size: 23 961 937 920 bytes
Length: 1:38:19.400
Total Bitrate: 32,49 Mbps
Video: MPEG-4 AVC Video / 28483 kbps / 1080i / 25 fps / 16:9 / High Profile 4.1
Audio: Russian / Dolby Digital Audio / 2.0 / 48 kHz / 192 kbps
Audio: Russian / LPCM Audio / 2.0 / 48 kHz / 2304 kbps / 24-bit
********************
PLAYLIST: 00001.MPLS
********************
Total   Video
Title                                                           Codec   Length  Movie Size      Disc Size       Bitrate Bitrate Main Audio Track                          Secondary Audio Track
-----                                                           ------  ------- --------------  --------------  ------- ------- ------------------                        ---------------------
00001.MPLS                                                      MPEG-2  0:00:41 121 638 912     24 209 151 188  23,35   22,06   DD AC3 2.0 192Kbps
DISC INFO:
Disc Title:     SOUTHERN_NIGHTS
Disc Size:      24 209 151 188 bytes
Protection:     AACS
BD-Java:        No
Extras:         50Hz Content
BDInfo:         0.5.8
PLAYLIST REPORT:
Name:                   00001.MPLS
Length:                 0:00:41.679 (h:m:s.ms)
Size:                   121 638 912 bytes
Total Bitrate:          23,35 Mbps
VIDEO:
Codec                   Bitrate             Description
-----                   -------             -----------
MPEG-2 Video            22064 kbps          1080i / 25 fps / 16:9
AUDIO:
Codec                           Language        Bitrate         Description
-----                           --------        -------         -----------
Dolby Digital Audio             English         192 kbps        2.0 / 48 kHz / 192 kbps
SUBTITLES:
Codec                           Language        Bitrate         Description
-----                           --------        -------         -----------
Interactive Graphics            English         8,305 kbps
FILES:
Name            Time In         Length          Size            Total Bitrate
----            -------         ------          ----            -------------
00002.M2TS      0:00:00.000     0:00:41.679     121 638 912     23 347
CHAPTERS:
Number          Time In         Length          Avg Video Rate  Max 1-Sec Rate  Max 1-Sec Time  Max 5-Sec Rate  Max 5-Sec Time  Max 10Sec Rate  Max 10Sec Time  Avg Frame Size  Max Frame Size  Max Frame Time
------          -------         ------          --------------  --------------  --------------  --------------  --------------  --------------  --------------  --------------  --------------  --------------
1               0:00:00.000     0:00:41.679     22 064 kbps     27 793 kbps     00:00:39.799    23 298 kbps     00:00:36.279    22 690 kbps     00:00:31.240    110 320 bytes   757 938 bytes   00:00:01.919
STREAM DIAGNOSTICS:
File            PID             Type            Codec           Language                Seconds                 Bitrate                 Bytes           Packets
----            ---             ----            -----           --------                --------------          --------------          -------------   -----
00002.M2TS      4113 (0x1011)   0x02            MPEG-2                                  41,640                  22 085                  114 953 427     625 362
00002.M2TS      4352 (0x1100)   0x81            AC3             eng (English)           41,640                  192                     1 000 704       6 515
00002.M2TS      5120 (0x1400)   0x91            IGS             eng (English)           41,640                  8                       43 269          240
QUICK SUMMARY:
Disc Title: SOUTHERN_NIGHTS
Disc Size: 24 209 151 188 bytes
Protection: AACS
BD-Java: No
Playlist: 00001.MPLS
Size: 121 638 912 bytes
Length: 0:00:41.679
Total Bitrate: 23,35 Mbps
Video: MPEG-2 Video / 22064 kbps / 1080i / 25 fps / 16:9
Audio: English / Dolby Digital Audio / 2.0 / 48 kHz / 192 kbps
Subtitle: English / 8,305 kbps
********************
PLAYLIST: 00002.MPLS
********************
Total   Video
Title                                                           Codec   Length  Movie Size      Disc Size       Bitrate Bitrate Main Audio Track                          Secondary Audio Track
-----                                                           ------  ------- --------------  --------------  ------- ------- ------------------                        ---------------------
00002.MPLS                                                      MPEG-2  0:00:41 125 466 624     24 209 151 188  24,08   22,76   DD AC3 2.0 192Kbps
DISC INFO:
Disc Title:     SOUTHERN_NIGHTS
Disc Size:      24 209 151 188 bytes
Protection:     AACS
BD-Java:        No
Extras:         50Hz Content
BDInfo:         0.5.8
PLAYLIST REPORT:
Name:                   00002.MPLS
Length:                 0:00:41.679 (h:m:s.ms)
Size:                   125 466 624 bytes
Total Bitrate:          24,08 Mbps
VIDEO:
Codec                   Bitrate             Description
-----                   -------             -----------
MPEG-2 Video            22762 kbps          1080i / 25 fps / 16:9
AUDIO:
Codec                           Language        Bitrate         Description
-----                           --------        -------         -----------
Dolby Digital Audio             English         192 kbps        2.0 / 48 kHz / 192 kbps
SUBTITLES:
Codec                           Language        Bitrate         Description
-----                           --------        -------         -----------
Interactive Graphics            English         12,122 kbps
FILES:
Name            Time In         Length          Size            Total Bitrate
----            -------         ------          ----            -------------
00003.M2TS      0:00:00.000     0:00:41.679     125 466 624     24 082
CHAPTERS:
Number          Time In         Length          Avg Video Rate  Max 1-Sec Rate  Max 1-Sec Time  Max 5-Sec Rate  Max 5-Sec Time  Max 10Sec Rate  Max 10Sec Time  Avg Frame Size  Max Frame Size  Max Frame Time
------          -------         ------          --------------  --------------  --------------  --------------  --------------  --------------  --------------  --------------  --------------  --------------
1               0:00:00.000     0:00:41.679     22 762 kbps     28 922 kbps     00:00:37.399    24 267 kbps     00:00:29.240    23 496 kbps     00:00:28.759    113 810 bytes   745 752 bytes   00:00:04.320
STREAM DIAGNOSTICS:
File            PID             Type            Codec           Language                Seconds                 Bitrate                 Bytes           Packets
----            ---             ----            -----           --------                --------------          --------------          -------------   -----
00003.M2TS      4113 (0x1011)   0x02            MPEG-2                                  41,640                  22 784                  118 590 385     645 126
00003.M2TS      4352 (0x1100)   0x81            AC3             eng (English)           41,640                  192                     1 000 704       6 515
00003.M2TS      5120 (0x1400)   0x91            IGS             eng (English)           41,640                  12                      63 157          397
QUICK SUMMARY:
Disc Title: SOUTHERN_NIGHTS
Disc Size: 24 209 151 188 bytes
Protection: AACS
BD-Java: No
Playlist: 00002.MPLS
Size: 125 466 624 bytes
Length: 0:00:41.679
Total Bitrate: 24,08 Mbps
Video: MPEG-2 Video / 22762 kbps / 1080i / 25 fps / 16:9
Audio: English / Dolby Digital Audio / 2.0 / 48 kHz / 192 kbps
Subtitle: English / 12,122 kbps

Скриншоты меню

Скриншоты

[Профиль] [ЛС]
Показать сообщения:    

Текущее время: Сегодня 06:18

Часовой пояс: GMT



Вы не можете начинать темы
Вы не можете отвечать на сообщения
Вы не можете редактировать свои сообщения
Вы не можете удалять свои сообщения
Вы не можете голосовать в опросах
Вы не можете прикреплять файлы к сообщениям
Вы не можете скачивать файлы