Южные ночи (Валентина Власова) [2012, мелодрама, комедия, BDRip 720p]

 
Автор Сообщение

painkiller ®

Стаж: 2 года 3 месяца

Сообщений: 582



Награды: Нет

Торрент-статистика

Создавать темы 14-Авг-2014 13:09

[Цитировать]

Южные ночи-
Год выпуска: 2012
Страна: Россия-Жанр: мелодрама, комедия
Продолжительность: 01:38:19
Перевод: Не требуется
Cубтитры: нет-Режиссер: Валентина Власова
Оператор: Денис Мадышев
Композитор: Валерий Царьков-В ролях: Ксения Роменкова (Юля), Артем Ткаченко (Виктор), Алексей Колубков (Миша), Екатерина Сахарова (Нина), Артем Артемьев (Кирилл)-Описание: Юлия - «городская штучка»: помешана на карьере, живет согласно четкому плану, комфорт - превыше всего.
Ради очередного повышения Юлия отправляется в далекую провинцию. Она должна выкупить землю, на которой разбиты виноградники. Но владелец виноградников, Виктор, категорически не хочет их продавать.
Виктор подвергает Юлю изощренным «сельским испытаниям». Юля, на своих высоченных шпильках, умеет карабкаться по карьерной лестнице. Но сможет ли она преодолеть навозные кучи, залезть на сосну, чтоб позвонить по мобильному, и самостоятельно выловить из моря ужин?
Удастся ли Виктору «укротить строптивую»? И сможет ли Юля ради любви отказаться от всего, что еще вчера составляло смысл ее жизни?- -Качество: BDRip 720p | Сэмпл
Формат: MKV
Видео: x264; 1280x720 (16:9); ~4079 Kbps; 25 fps; 0,177 bpp
Аудио: Russian / AC3 / 2.0 / 48 kHz / 640 kbps-

MediaInfo

Общее
Уникальный идентификатор         : 173998284943544736953846699718650405852 (0x82E6D9C914599681B733008E60D8A3DC)
Полное имя                       : Yuzhnie.Nochi.2012.BDRip.720p.DD.Rus-Sl3.mkv
Формат                           : Matroska
Версия формата                   : Version 2
Размер файла                     : 3,31 Гбайт
Продолжительность                : 1 ч. 38 м.
Общий поток                      : 4816 Кбит/сек
Название фильма                  : Южные Ночи (2012)
Дата кодирования                 : UTC 2012-04-14 09:34:02
Программа кодирования            : mkvmerge v5.4.0 ('Piper') built on Mar 10 2012 13:34:39
Библиотека кодирования           : libebml v1.2.3 + libmatroska v1.3.0
Видео
Идентификатор                    : 1
Формат                           : AVC
Формат/Информация                : Advanced Video Codec
Профиль формата                  : High@L4.1
Параметр CABAC формата           : Да
Параметр ReFrames формата        : 8 кадров
Идентификатор кодека             : V_MPEG4/ISO/AVC
Продолжительность                : 1 ч. 38 м.
Битрейт                          : 4080 Кбит/сек
Ширина                           : 1280 пикселей
Высота                           : 720 пикселей
Соотношение сторон               : 16:9
Частота кадров                   : 25,000 кадров/сек
Цветовое пространство            : YUV
Субдискретизация насыщенности    : 4:2:0
Битовая глубина                  : 8 бит
Тип развёртки                    : Прогрессивная
Бит/(Пиксели*Кадры)              : 0.177
Размер потока                    : 2,80 Гбайт (85%)
Заголовок                        : Yuzhnie.Nochi.2012.BDRip.720p.DD.Rus-Sl3
Библиотека кодирования           : x264 core 116 r2074 2641b9e
Настройки программы              : cabac=1 / ref=8 / deblock=1:-2:-2 / analyse=0x3:0x113 / me=umh / subme=11 / psy=1 / psy_rd=1.00:0.10 / mixed_ref=1 / me_range=32 / chroma_me=1 / trellis=2 / 8x8dct=1 / cqm=0 / deadzone=21,11 / fast_pskip=0 / chroma_qp_offset=-3 / threads=6 / sliced_threads=0 / nr=0 / decimate=0 / interlaced=0 / bluray_compat=0 / constrained_intra=0 / bframes=9 / b_pyramid=2 / b_adapt=2 / b_bias=0 / direct=3 / weightb=1 / open_gop=0 / weightp=2 / keyint=250 / keyint_min=25 / scenecut=40 / intra_refresh=0 / rc=crf / mbtree=0 / crf=17.5 / qcomp=0.60 / qpmin=10 / qpmax=51 / qpstep=4 / ip_ratio=1.40 / pb_ratio=1.30 / aq=1:1.20
Язык                             : Russian
Коэффициенты матрицы             : BT.709-5, BT.1361, IEC 61966-2-4 709, SMPTE RP177
Аудио
Идентификатор                    : 2
Формат                           : AC-3
Формат/Информация                : Audio Coding 3
Расширение режима                : CM (complete main)
Идентификатор кодека             : A_AC3
Продолжительность                : 1 ч. 38 м.
Вид битрейта                     : Постоянный
Битрейт                          : 640 Кбит/сек
Каналы                           : 2 канала
Расположение каналов             : Front: L R
Частота                          : 48,0 КГц
Битовая глубина                  : 16 бит
Метод сжатия                     : С потерями
Размер потока                    : 450 Мбайт (13%)
Язык                             : Russian
Меню
00:00:00.000                     : ru:00:00:00.000
00:05:17.879                     : ru:00:05:17.879
00:11:12.519                     : ru:00:11:12.519
00:20:18.880                     : ru:00:20:18.880
00:25:59.039                     : ru:00:25:59.039
00:33:52.240                     : ru:00:33:52.240
00:40:04.440                     : ru:00:40:04.440
00:44:47.159                     : ru:00:44:47.159
00:54:03.480                     : ru:00:54:03.480
01:00:01.400                     : ru:01:00:01.400
01:09:00.880                     : ru:01:09:00.880
01:13:58.079                     : ru:01:13:58.079
01:18:25.520                     : ru:01:18:25.520
01:24:51.920                     : ru:01:24:51.920
01:29:59.800                     : ru:01:29:59.800

Скриншоты


x264Код:

---[NoImage] x264 [info]: frame I:1002 Avg QP:15.04 size: 97205
---[NoImage] x264 [info]: frame P:33520 Avg QP:16.31 size: 41062
---[NoImage] x264 [info]: frame B:112953 Avg QP:17.77 size: 14199
---[NoImage] x264 [info]: consecutive B-frames: 2.0% 2.4% 8.9% 28.7% 18.5% 33.2% 3.9% 1.0% 1.1% 0.3%
---[NoImage] x264 [info]: mb I I16..4: 7.0% 74.5% 18.4%
---[NoImage] x264 [info]: mb P I16..4: 2.2% 20.3% 3.0% P16..4: 29.1% 31.6% 10.4% 0.0% 0.0% skip: 3.4%
---[NoImage] x264 [info]: mb B I16..4: 0.6% 3.4% 0.4% B16..8: 32.6% 21.4% 3.6% direct: 6.3% skip:31.7% L0:41.4% L1:44.2% BI:14.4%
---[NoImage] x264 [info]: 8x8 transform intra:78.6% inter:54.7%
---[NoImage] x264 [info]: direct mvs spatial:100.0% temporal:0.0%
---[NoImage] x264 [info]: coded y,uvDC,uvAC intra: 76.8% 73.3% 55.1% inter: 21.2% 19.9% 8.0%
---[NoImage] x264 [info]: i16 v,h,dc,p: 27% 14% 6% 53%
---[NoImage] x264 [info]: i8 v,h,dc,ddl,ddr,vr,hd,vl,hu: 13% 11% 15% 8% 10% 11% 10% 11% 12%
---[NoImage] x264 [info]: i4 v,h,dc,ddl,ddr,vr,hd,vl,hu: 16% 11% 13% 7% 13% 12% 10% 9% 10%
---[NoImage] x264 [info]: i8c dc,h,v,p: 37% 28% 21% 14%
---[NoImage] x264 [info]: Weighted P-Frames: Y:6.6% UV:3.7%
---[NoImage] x264 [info]: ref P L0: 48.5% 9.7% 19.6% 6.7% 5.4% 3.9% 3.5% 2.3% 0.3% 0.0%
---[NoImage] x264 [info]: ref B L0: 78.2% 11.2% 4.9% 2.5% 1.8% 1.0% 0.5%
---[NoImage] x264 [info]: ref B L1: 93.7% 6.3%
---[NoImage] x264 [info]: kb/s:4173.73
---[NoImage] encoded 147475 frames, 4.00 fps, 4173.73 kb/s[/code][/spoler]-
[Профиль] [ЛС]
Показать сообщения:    

Текущее время: Сегодня 08:20

Часовой пояс: GMT



Вы не можете начинать темы
Вы не можете отвечать на сообщения
Вы не можете редактировать свои сообщения
Вы не можете удалять свои сообщения
Вы не можете голосовать в опросах
Вы не можете прикреплять файлы к сообщениям
Вы не можете скачивать файлы