Эш против Зловещих мертвецов / Ash vs Evil Dead (Сезон 2, Серия 1- 10 из 10) (Сэм Рэйми) [2016 , Ужасы, боевик, комедия , WEB-DL 1080р] [MVO] [AlexFilm ,NewStudio ,BaibaKo,OMSKBIRD ,Jaskier,Kubik V Kube,UATEAM] + [Subs Eng]

 
Автор Сообщение

Враг Нароода ®

Стаж: 2 года 6 месяцев

Сообщений: 168



Награды: 2 (Подробнее)

За внесенный вклад в развитие сайта (Количество: 1) Mega Seeder 1 (Количество: 1)
Торрент-статистика

Создавать темы 12-Окт-2016 19:37

[Цитировать]

--Эш против Зловещих мертвецов / Ash vs Evil Dead Сезон 2, Серия 1-10 из 10 -- --Год выпуска: 2016
Выпущено: США , Старз, Ренаиссанце Пицтурес
Жанр: Ужасы, боевик, комедия
Продолжительность: 00:40:00
Сезон:2
Серия: 1-10
Количество серий в сезоне: 10
Озвучка 1: Профессиональный многоголосый - AlexFilm Ненормативная лексика
Озвучка 2: Профессиональный многоголосый - NewStudio Ненормативная лексика
Озвучка 3: Профессиональный многоголосый - BaibaKo Ненормативная лексика
Озвучка 4: Профессиональный многоголосый - OMSKBIRD Ненормативная лексика
Озвучка 5: Профессиональный многоголосый -Jaskier Ненормативная лексика
Озвучка 6: Профессиональный Двухголосый -Kubik V Kube Ненормативная лексика
Озвучка 7: Профессиональный многоголосый -UATEAM-Украинский
Озвучка 8: Профессиональный многоголосый - Английский-English - Оригинал
Субтитры: : Английские-- -- --Режиссер: Майкл Херст, Рик Джейкобсон, Сэм Рэйми--В ролях: Брюс Кэмпбелл, Джилл Мари Джонс, Дэна ДеЛоренцо, Люси Лоулесс, Рэй Сантьяго, Мими Роджерс, Хемки Мадера, Фил Пелетон, Дэмиен Гарви и др.-- 30 лет он избегал ответственности за свои поступки, упорно старался не взрослеть и не особо стремился вновь встретиться с ожившими мертвецами. Но, совершив ошибку, Эш узнает, что проказа кандарийских демонов угрожает распространиться по всей планете и ему снова приходится вступить в схватку с полчищами мертвой нечисти. Реки крови, горы трупов и, конечно, искрометный черный юмор – отличный подарок всем любителям ужасов, комедий, крови, треша и угара.-- --Качество :WEB-DL 1080р
Формат: MKV
Видео кодек: H264
Видео: 11,7Мбит/сек,1920х1080(16.9),в 23.976кадр/сек,AVC (High@L4.1)(CABAC/4 Ref Frames)
Аудио Кодек:AC3
Аудио ъ1: AC3, 384 Kbps, 48.0 KHz, 6 ch - - AlexFilm-Русский
Аудио ъ2:AC3, 384 Kbps, 48.0 KHz, 6 ch - - NewStudio-Русский
Аудио ъ3: AC3, 384 Kbps, 48.0 KHz, 6 ch - - BaibaKo-Русский
Аудио ъ4:AC3, 384 Kbps, 48.0 KHz, 6 ch - - OMSKBIRD-Русский
Аудио ъ5: AC3, 384 Kbps, 48.0 KHz, 6 ch - - - - Jaskier-Русский
Аудио ъ6: AC3, 384 Kbps, 48.0 KHz, 6 ch - -Kubik V Kube-Русский
Аудио ъ7: AC3, 384 Kbps, 48.0 KHz, 6 ch - -UATEAM-Украинский
Аудио ъ8: AC3, 640 Kbps, 48.0 KHz, 6 ch - - English- Английский - Оригинал--

Доп. информация:

Звуковая дорожка сделана путем наложения чистого голоса озвучивателей на центральный канал оригинальной дорожки. Качество идентично звуковой дорожке.
--

Список эпизодов сезона


1. Дом / Home
2. Морг / The Morgue
3. Заказ перед закрытием / Last Call
4. Пьяное вождение / DUI
5. Заключение / Confinement
6. В ловушке / Trapped Inside
7. Иллюзия / Delusion
8. Эши-слэши / Ashy Slashy
9. Снова дома / Home Again
10.
--

MediaInfo сезона

Общее
Уникальный идентификатор : 221328520305196956655483130467498671662 (0xA682528E11240AD7B512B92009C93E2E)
Полное имя : C:\МОЙ ДОСУГ\ЭШ ПРОТИВ ЗЛОВЕЩИХ МЕРТВЕЦОВ\Ash_vs_Evil_Dead_S02_6xRus_Ukr_Eng_[AlexFilm_NewStudio_BaibaKo_OMSKBIRD_Jaskier_ Kubik_V_Kube_UATEAM]_N.B_WEBDL_1080\Ash_vs_Evil_Dead_S02E01_6xRus_Ukr_Eng_N.B_WEBDL_1080.mkv
Формат : Matroska
Версия формата : Version 4 / Version 2
Размер файла : 3,55 Гбайт
Продолжительность : 33 м. 55 с.
Общий поток : 15,0 Мбит/сек
Название фильма : Ash_vs_Evil_Dead_S02E01_6xRus_Ukr_Eng_N.B_WEBDL_1080
Дата кодирования : UTC 2016-11-10 13:07:28
Программа кодирования : mkvmerge v9.5.0 ('Quiet Fire') 64bit
Библиотека кодирования : libebml v1.3.4 + libmatroska v1.4.5
Видео
Идентификатор : 1
Формат : AVC
Формат/Информация : Advanced Video Codec
Профиль формата : High@L4.1
Параметр CABAC формата : Да
Параметр ReFrames формата : 4 кадра
Идентификатор кодека : V_MPEG4/ISO/AVC
Продолжительность : 33 м. 55 с.
Битрейт : 11,7 Мбит/сек
Ширина : 1920 пикселей
Высота : 1080 пикселей
Соотношение сторон : 16:9
Режим частоты кадров : Постоянный
Частота кадров : 23,976 (24000/1001) кадра/сек
Цветовое пространство : YUV
Субдискретизация насыщенности : 4:2:0
Битовая глубина : 8 бит
Тип развёртки : Прогрессивная
Бит/(Пиксели*Кадры) : 0.235
Размер потока : 2,76 Гбайт (78%)
Заголовок : Ash_vs_Evil_Dead_S02E01_6xRus_Ukr_Eng_N.B_WEBDL_1080
Библиотека кодирования : x264 core 148 r2721+7 72d53ab / tmod 162ad1b X86_64
Настройки программы : cabac=1 / ref=4 / deblock=1:-3:-3 / analyse=0x3:0x133 / me=umh / subme=11 / psy=1 / fade_compensate=0.00 / psy_rd=1.05:0.15 / mixed_ref=1 / me_range=48 / chroma_me=1 / trellis=2 / 8x8dct=1 / cqm=0 / deadzone=21,11 / fast_pskip=0 / chroma_qp_offset=-3 / threads=12 / lookahead_threads=3 / sliced_threads=0 / nr=0 / decimate=0 / interlaced=0 / bluray_compat=0 / constrained_intra=0 / fgo=0 / bframes=10 / b_pyramid=2 / b_adapt=2 / b_bias=0 / direct=3 / weightb=1 / open_gop=0 / weightp=2 / keyint=250 / keyint_min=23 / scenecut=40 / intra_refresh=0 / rc=crf / mbtree=0 / crf=17.0000 / qcomp=0.75 / qpmin=0:0:0 / qpmax=69:69:69 / qpstep=4 / ip_ratio=1.40 / pb_ratio=1.30 / aq=3:0.70 / aq-sensitivity=10.00 / aq-factor=1.00:1.00:1.00 / aq2=0 / aq3=0
Язык : English
Default : Да
Forced : Нет
Аудио #1
Идентификатор : 4
Формат : AC-3
Формат/Информация : Audio Coding 3
Расширение режима : CM (complete main)
Параметр Endianness формата : Big
Идентификатор кодека : A_AC3
Продолжительность : 33 м. 55 с.
Вид битрейта : Постоянный
Битрейт : 384 Кбит/сек
Каналы : 6 каналов
Расположение каналов : Front: L C R, Side: L R, LFE
Частота : 48,0 КГц
Частота кадров : 31,250 кадров/сек (1536 spf)
Битовая глубина : 16 бит
Метод сжатия : С потерями
Размер потока : 93,2 Мбайт (3%)
Заголовок : MVO AlexFilm @DD5.1 AC3, 384 Kbps, 48.0 KHz, 6 ch
Язык : Russian
Default : Да
Forced : Нет
Аудио #2
Идентификатор : 5
Формат : AC-3
Формат/Информация : Audio Coding 3
Расширение режима : CM (complete main)
Параметр Endianness формата : Big
Идентификатор кодека : A_AC3
Продолжительность : 33 м. 55 с.
Вид битрейта : Постоянный
Битрейт : 384 Кбит/сек
Каналы : 6 каналов
Расположение каналов : Front: L C R, Side: L R, LFE
Частота : 48,0 КГц
Частота кадров : 31,250 кадров/сек (1536 spf)
Битовая глубина : 16 бит
Метод сжатия : С потерями
Размер потока : 93,2 Мбайт (3%)
Заголовок : MVO NewStudio @DD5.1 AC3, 384 Kbps, 48.0 KHz, 6 ch
Язык : Russian
Default : Нет
Forced : Нет
Аудио #3
Идентификатор : 6
Формат : AC-3
Формат/Информация : Audio Coding 3
Расширение режима : CM (complete main)
Параметр Endianness формата : Big
Идентификатор кодека : A_AC3
Продолжительность : 33 м. 54 с.
Вид битрейта : Постоянный
Битрейт : 384 Кбит/сек
Каналы : 6 каналов
Расположение каналов : Front: L C R, Side: L R, LFE
Частота : 48,0 КГц
Частота кадров : 31,250 кадров/сек (1536 spf)
Битовая глубина : 16 бит
Метод сжатия : С потерями
Размер потока : 93,1 Мбайт (3%)
Заголовок : MVO BaibaKo @DD5.1 AC3, 384 Kbps, 48.0 KHz, 6 ch
Язык : Russian
Default : Нет
Forced : Нет
Аудио #4
Идентификатор : 7
Формат : AC-3
Формат/Информация : Audio Coding 3
Расширение режима : CM (complete main)
Параметр Endianness формата : Big
Идентификатор кодека : A_AC3
Продолжительность : 33 м. 55 с.
Вид битрейта : Постоянный
Битрейт : 384 Кбит/сек
Каналы : 6 каналов
Расположение каналов : Front: L C R, Side: L R, LFE
Частота : 48,0 КГц
Частота кадров : 31,250 кадров/сек (1536 spf)
Битовая глубина : 16 бит
Метод сжатия : С потерями
Размер потока : 93,2 Мбайт (3%)
Заголовок : MVO OMSKBIRD @DD5.1 AC3, 384 Kbps, 48.0 KHz, 6 ch
Язык : Russian
Default : Нет
Forced : Нет
Аудио #5
Идентификатор : 8
Формат : AC-3
Формат/Информация : Audio Coding 3
Расширение режима : CM (complete main)
Параметр Endianness формата : Big
Идентификатор кодека : A_AC3
Продолжительность : 33 м. 55 с.
Вид битрейта : Постоянный
Битрейт : 384 Кбит/сек
Каналы : 6 каналов
Расположение каналов : Front: L C R, Side: L R, LFE
Частота : 48,0 КГц
Частота кадров : 31,250 кадров/сек (1536 spf)
Битовая глубина : 16 бит
Метод сжатия : С потерями
Размер потока : 93,2 Мбайт (3%)
Заголовок : MVO Jaskier @DD5.1 AC3, 384 Kbps, 48.0 KHz, 6 ch
Язык : Russian
Default : Нет
Forced : Нет
Аудио #6
Идентификатор : 9
Формат : AC-3
Формат/Информация : Audio Coding 3
Расширение режима : CM (complete main)
Параметр Endianness формата : Big
Идентификатор кодека : A_AC3
Продолжительность : 33 м. 55 с.
Вид битрейта : Постоянный
Битрейт : 384 Кбит/сек
Каналы : 6 каналов
Расположение каналов : Front: L C R, Side: L R, LFE
Частота : 48,0 КГц
Частота кадров : 31,250 кадров/сек (1536 spf)
Битовая глубина : 16 бит
Метод сжатия : С потерями
Размер потока : 93,2 Мбайт (3%)
Заголовок : MVO Kubik V Kube @DD5.1 AC3, 384 Kbps, 48.0 KHz, 6 ch
Язык : Russian
Default : Нет
Forced : Нет
Аудио #7
Идентификатор : 10
Формат : AC-3
Формат/Информация : Audio Coding 3
Расширение режима : CM (complete main)
Параметр Endianness формата : Big
Идентификатор кодека : A_AC3
Продолжительность : 33 м. 55 с.
Вид битрейта : Постоянный
Битрейт : 640 Кбит/сек
Каналы : 6 каналов
Расположение каналов : Front: L C R, Side: L R, LFE
Частота : 48,0 КГц
Частота кадров : 31,250 кадров/сек (1536 spf)
Битовая глубина : 16 бит
Метод сжатия : С потерями
Размер потока : 155 Мбайт (4%)
Заголовок : Original@DD5.1 AC3 ,640 Kbps, 48.0 KHz, 6 ch
Язык : English
Default : Нет
Forced : Нет
Аудио #8
Идентификатор : 11
Формат : AC-3
Формат/Информация : Audio Coding 3
Расширение режима : CM (complete main)
Параметр Endianness формата : Big
Идентификатор кодека : A_AC3
Продолжительность : 33 м. 55 с.
Вид битрейта : Постоянный
Битрейт : 384 Кбит/сек
Каналы : 6 каналов
Расположение каналов : Front: L C R, Side: L R, LFE
Частота : 48,0 КГц
Частота кадров : 31,250 кадров/сек (1536 spf)
Битовая глубина : 16 бит
Метод сжатия : С потерями
Размер потока : 93,2 Мбайт (3%)
Заголовок : MVO Uateam @DD5.1 AC3, 384 Kbps, 48.0 KHz, 6 ch
Язык : Ukrainian
Default : Нет
Forced : Нет
Текст #1
Идентификатор : 2
Формат : ASS
Идентификатор кодека : S_TEXT/ASS
Идентификатор кодека/Информация : Advanced Sub Station Alpha
Продолжительность : 7 с. 590 мс.
Битрейт : 111 бит/сек
Count of elements : 2
Метод сжатия : Без потерь
Размер потока : 106 байт (0%)
Заголовок : Forced
Язык : Russian
Default : Да
Forced : Нет
Текст #2
Идентификатор : 3
Формат : UTF-8
Идентификатор кодека : S_TEXT/UTF8
Идентификатор кодека/Информация : UTF-8 Plain Text
Продолжительность : 33 м. 32 с.
Битрейт : 57 бит/сек
Count of elements : 627
Размер потока : 14,1 Кбайт (0%)
Заголовок : Original
Язык : English
Default : Нет
Forced : Нет
--

Скриншоты

-- --

Как закачать отдельный файл

1. Открыть торрент
2. Снять галки с тех файлов торрента, которые мы не хотим закачивать. Оставляем только на нужных нам файлах (файле).
3. Нажать О.К.
В клиенте utorrent
Инструкция
1) Открыть торрент

2) Снять галки с тех файлов торрента, которые мы не хотим закачивать:
* либо вручную, снимая с каждого файла галку( скрин №1)
* либо, нажав кнопку "Снять метки (Select None)", сняв сразу со всех файлов(скрин №2)
№1

№2

Оставляем только на нужных нам файлах (файле).

3)Нажать О.К
-- -- -- --Внимание!!! 13.12. 2016. РАЗДАЧА ОБНОВЛЕНА. ФИНАЛ СЕЗОНА. ОБНОВИТЕ ТОРЕНТ ФАЙЛ.ПРИЯТНОГО ПРОСМОТРА . --Релиз от: Nikolai.Baranov & PIRATIYA -- -- -- --
[Профиль] [ЛС]
Кто просматривает тему:

Показать сообщения:    

Текущее время: Сегодня 18:14

Часовой пояс: GMT



Вы не можете начинать темы
Вы не можете отвечать на сообщения
Вы не можете редактировать свои сообщения
Вы не можете удалять свои сообщения
Вы не можете голосовать в опросах
Вы не можете прикреплять файлы к сообщениям
Вы не можете скачивать файлы