Эшби / Ashby (2015) BDRip 1080p | iTunes

 
Автор Сообщение

BOSS ®

Пол:

Стаж: 2 года 1 месяц

Сообщений: 3718

Откуда: ODESSA



Награды: 20 (Подробнее)

Mega Releaser 1 (Количество: 1) Top Seeder 5 (Количество: 1) Mega Seeder 2 (Количество: 1)
Торрент-статистика

Создавать темы 11-Янв-2016 13:19

[Цитировать]

Информация о фильме
Название: Эшби
Оригинальное название: Ashby
Год выпуска: 2015
Страна: США
Жанр: драма, мелодрама, комедия, криминал-Перевод: Дубляж - [iTunes]
Субтитры: Английские, Французские, Испанские
Продолжительность: 01:43:00-Режиссер: Тони МакНамара
В ролях: Микки Рурк (Ashby Holt), Нат Вулф (Ed Wallis), Эмма Робертс (Eloise), Сара Силверман (June Wallis), Кевин Данн (Coach Bruton), Захари Найтон (Father Ted), Майкл Лернер (Entwhistle), Джон Инос III (Coach Wally), Стив Култер (Peter Black), Том Ноуики (Kenrick), Адам Алдеркс (Valchek), Сет Даусмен (Garry Smits)-Описание:
Переехав в другой город, Эд начинает дружить со своим новым соседом Эшби - бывшим киллером ЦРУ, которому осталось жить всего несколько месяцев...-Рейтинг:

MPAA: R - Лицам до 17 лет обязательно присутствие взрослого-Качество: BDRip 1080p
Формат: MKV
Видео: AVC, 1920x800 (2.40:1), 8931 kbps, 23,976 fps, 0,243 bpp
Аудио №1: русский / AC3 / 5.1 / 48 kHz / 384 kbps / 16 bit
Аудио №2: английский / DTS / 5.1 / 48 kHz / 1510 kbps / 24 bit
Навигация по главам: есть-

ОтчетМедиаИнфо

General
Unique ID : 206340558751451659131530980905884958166 (0x9B3BBEFF5E1FC75AA406F4AB8ED5BDD6)
Complete name : D:downloadAshby.2015.BDRip 1080p. by schultz R.G.Resident.mkv
Format : Matroska
Format version : Version 4 / Version 2
File size : 7.82 GiB
Duration : 1h 43mn
Overall bit rate : 10.9 Mbps
Encoded date : UTC 2016-01-11 09:49:51
Writing application : mkvmerge v6.7.0 ('Back to the Ground') 64bit built on Jan 8 2014 15:10:52
Writing library : libebml v1.3.0 + libmatroska v1.4.1
DURATION : 01:41:59.155000000
NUMBER_OF_FRAMES : 2834
NUMBER_OF_BYTES : 8020474
_STATISTICS_WRITING_APP : mkvmerge v8.3.0 ('Over the Horizon') 64bit
_STATISTICS_WRITING_DATE_UTC : 2016-01-07 09:28:13
_STATISTICS_TAGS : BPS DURATION NUMBER_OF_FRAMES NUMBER_OF_BYTES
Video
ID : 1
Format : AVC
Format/Info : Advanced Video Codec
Format profile : High@L4.1
Format settings, CABAC : Yes
Format settings, ReFrames : 5 frames
Codec ID : V_MPEG4/ISO/AVC
Duration : 1h 43mn
Bit rate : 8 931 Kbps
Width : 1 920 pixels
Height : 800 pixels
Display aspect ratio : 2.40:1
Frame rate : 23.976 fps
Color space : YUV
Chroma subsampling : 4:2:0
Bit depth : 8 bits
Scan type : Progressive
Bits/(Pixel*Frame) : 0.243
Stream size : 6.30 GiB (81%)
Writing library : x264 core 130 r2273 b3065e6
Encoding settings : cabac=1 / ref=5 / deblock=1:-3:-3 / analyse=0x3:0x113 / me=umh / subme=11 / psy=1 / psy_rd=1.00:0.10 / mixed_ref=1 / me_range=32 / chroma_me=1 / trellis=2 / 8x8dct=1 / cqm=0 / deadzone=21,11 / fast_pskip=0 / chroma_qp_offset=-3 / threads=12 / lookahead_threads=2 / sliced_threads=0 / nr=0 / decimate=1 / interlaced=0 / bluray_compat=0 / constrained_intra=0 / bframes=8 / b_pyramid=2 / b_adapt=2 / b_bias=0 / direct=3 / weightb=1 / open_gop=0 / weightp=2 / keyint=240 / keyint_min=23 / scenecut=40 / intra_refresh=0 / rc_lookahead=40 / rc=2pass / mbtree=0 / bitrate=8931 / ratetol=1.0 / qcomp=0.60 / qpmin=0 / qpmax=69 / qpstep=4 / cplxblur=20.0 / qblur=0.5 / vbv_maxrate=14000 / vbv_bufsize=14000 / nal_hrd=none / ip_ratio=1.40 / pb_ratio=1.30 / aq=1:0.80
Language : English
Default : Yes
Forced : No
Audio #1
ID : 2
Format : AC-3
Format/Info : Audio Coding 3
Mode extension : CM (complete main)
Codec ID : A_AC3
Duration : 1h 43mn
Bit rate mode : Constant
Bit rate : 384 Kbps
Channel(s) : 6 channels
Channel positions : Front: L C R, Side: L R, LFE
Sampling rate : 48.0 KHz
Bit depth : 16 bits
Compression mode : Lossy
Delay relative to video : 1s 0ms
Stream size : 283 MiB (4%)
Language : Russian
Default : Yes
Forced : No
DURATION : 01:43:00.182000000
NUMBER_OF_FRAMES : 579392
NUMBER_OF_BYTES : 1165736704
_STATISTICS_WRITING_APP : mkvmerge v8.3.0 ('Over the Horizon') 64bit
_STATISTICS_WRITING_DATE_UTC : 2016-01-07 09:28:13
_STATISTICS_TAGS : BPS DURATION NUMBER_OF_FRAMES NUMBER_OF_BYTES
Audio #2
ID : 3
Format : DTS
Format/Info : Digital Theater Systems
Codec ID : A_DTS
Duration : 1h 43mn
Bit rate mode : Constant
Bit rate : 1 510 Kbps
Channel(s) : 6 channels
Channel positions : Front: L C R, Side: L R, LFE
Sampling rate : 48.0 KHz
Bit depth : 24 bits
Compression mode : Lossy
Stream size : 1.09 GiB (14%)
Language : English
Default : No
Forced : No
Text #1
ID : 4
Format : PGS
Muxing mode : zlib
Codec ID : S_HDMV/PGS
Codec ID/Info : The same subtitle format used on BDs/HD-DVDs
Language : English
Default : No
Forced : No
Text #2
ID : 5
Format : PGS
Muxing mode : zlib
Codec ID : S_HDMV/PGS
Codec ID/Info : The same subtitle format used on BDs/HD-DVDs
Language : English
Default : No
Forced : No
Text #3
ID : 6
Format : PGS
Muxing mode : zlib
Codec ID : S_HDMV/PGS
Codec ID/Info : The same subtitle format used on BDs/HD-DVDs
Language : French
Default : No
Forced : No
Text #4
ID : 7
Format : PGS
Muxing mode : zlib
Codec ID : S_HDMV/PGS
Codec ID/Info : The same subtitle format used on BDs/HD-DVDs
Language : Spanish
Default : No
Forced : No
Menu
00:00:00.000 : en:00:00:00.000
00:07:42.212 : en:00:07:42.212
00:13:15.169 : en:00:13:15.169
00:18:51.005 : en:00:18:51.005
00:25:08.716 : en:00:25:08.716
00:29:19.967 : en:00:29:19.967
00:33:39.517 : en:00:33:39.517
00:42:00.059 : en:00:42:00.059
00:51:44.810 : en:00:51:44.810
00:55:49.179 : en:00:55:49.179
01:00:12.943 : en:01:00:12.943
01:05:25.213 : en:01:05:25.213
01:11:29.911 : en:01:11:29.911
01:18:38.172 : en:01:18:38.172
01:24:38.031 : en:01:24:38.031
01:27:34.291 : en:01:27:34.291
01:30:07.485 : en:01:30:07.485
01:38:48.714 : en:01:38:48.714

Скриншоты

[Профиль] [ЛС]
Показать сообщения:    

Текущее время: Сегодня 16:33

Часовой пояс: GMT



Вы не можете начинать темы
Вы не можете отвечать на сообщения
Вы не можете редактировать свои сообщения
Вы не можете удалять свои сообщения
Вы не можете голосовать в опросах
Вы не можете прикреплять файлы к сообщениям
Вы не можете скачивать файлы