Эффект Лазаря / The Lazarus Effect (Дэвид Гелб / David Gelb) [2015, США, Триллер, ужасы, BDRip] Dub + Original (Eng) + Subs (Rus, Eng)

 
Автор Сообщение

TorrentFilm ®

Пол:

Стаж: 2 года

Сообщений: 7741



Награды: Нет

Торрент-статистика

Создавать темы 28-Сен-2015 00:10

[Цитировать]

Эффект Лазаря / The Lazarus Effect
«И зло воскреснет»
- Год выпуска: 2015
Выпущено: США / Blumhouse Productions, Lionsgate
Жанр: триллер, ужасы
Продолжительность: 01:23:11
Перевод: Профессиональный (полное дублирование)
Cубтитры: Русские, Английские (полные, SDH) (внешние .srt*)
Оригинальная аудиодорожка: Английская-Режиссер:
Дэвид Гелб / David Gelb-В ролях:
Марк Дюпласс (Frank), Оливия Уайлд (Zoe), Сара Болгер (Eva), Эван Питерс (Clay), Дональд Гловер (Niko), Рэй Уайз (Mr. Wallace), Скотт Шелдон (Security Guard), Эмили Келавос (Little Girl), Джеймс Эрл (Security Guard Terrence), Эми Акино (President Dalley), Шон Т. Кришнан (Lawyer)-Описание:
Команда любознательных студентов узнает секрет воскрешения людей из мертвых. Однако их открытие приводит к страшным последствиям.-Релиз групп | | IMDB | КиноПоиск | Сэмпл |-Качество: BDRip [BDRemux | 1080p | Кинозал]
Формат: AVI
Видео: 720x304 (2.37:1), 23.976 fps, XviD build 73 ~1715 kbps avg, 0.33 bit/pixel
Аудио #1: 48 kHz, AC3 Dolby Digital, 3/2 (L,C,R,l,r) + LFE ch, ~384.00 kbps avg (RUS) - iTunes Russia
Аудио #2: 48 kHz, AC3 Dolby Digital, 3/2 (L,C,R,l,r) + LFE ch, ~384.00 kbps avg (ENG)
-

Скриншоты

MediaInfo

General
Complete name                            : D:\Effekt_Lazarya_2015_BDRip_iT_by_Dalemake.avi
Format                                   : AVI
Format/Info                              : Audio Video Interleave
File size                                : 1.45 GiB
Duration                                 : 1h 23mn
Overall bit rate                         : 2 498 Kbps
Writing application                      : VirtualDubMod 1.5.10.3 | www.virtualdub-fr.org || (build 2550/release)
Writing library                          : VirtualDubMod build 2550/release
Video
ID                                       : 0
Format                                   : MPEG-4 Visual
Format profile                           : Advanced Simple@L5
Format settings, BVOP                    : 1
Format settings, QPel                    : No
Format settings, GMC                     : No warppoints
Format settings, Matrix                  : Custom
Codec ID                                 : XVID
Codec ID/Hint                            : XviD
Duration                                 : 1h 23mn
Bit rate                                 : 1 716 Kbps
Width                                    : 720 pixels
Height                                   : 304 pixels
Display aspect ratio                     : 2.35:1
Frame rate                               : 23.976 fps
Color space                              : YUV
Chroma subsampling                       : 4:2:0
Bit depth                                : 8 bits
Scan type                                : Progressive
Compression mode                         : Lossy
Bits/(Pixel*Frame)                       : 0.327
Stream size                              : 1 021 MiB (69%)
Writing library                          : XviD 73
Audio #1
ID                                       : 1
Format                                   : AC-3
Format/Info                              : Audio Coding 3
Mode extension                           : CM (complete main)
Format settings, Endianness              : Big
Codec ID                                 : 2000
Duration                                 : 1h 23mn
Bit rate mode                            : Constant
Bit rate                                 : 384 Kbps
Channel(s)                               : 6 channels
Channel positions                        : Front: L C R, Side: L R, LFE
Sampling rate                            : 48.0 KHz
Bit depth                                : 16 bits
Compression mode                         : Lossy
Stream size                              : 228 MiB (15%)
Alignment                                : Split accross interleaves
Interleave, duration                     : 42 ms (1.00 video frame)
Interleave, preload duration             : 500 ms
Audio #2
ID                                       : 2
Format                                   : AC-3
Format/Info                              : Audio Coding 3
Mode extension                           : CM (complete main)
Format settings, Endianness              : Big
Codec ID                                 : 2000
Duration                                 : 1h 23mn
Bit rate mode                            : Constant
Bit rate                                 : 384 Kbps
Channel(s)                               : 6 channels
Channel positions                        : Front: L C R, Side: L R, LFE
Sampling rate                            : 48.0 KHz
Bit depth                                : 16 bits
Compression mode                         : Lossy
Stream size                              : 229 MiB (15%)
Alignment                                : Split accross interleaves
Interleave, duration                     : 42 ms (1.00 video frame)
Interleave, preload duration             : 500 ms

Сравнение

http://torrentfilm.net/forum/viewtopic.php?t=5014380
http://screenshotcomparison.com/comparison/144157
+ оригинал в контейнере и субтитры
-
[Профиль] [ЛС]
Кто просматривает тему:

Форум Тема Автор Размер
Компьютерная литература (Программирование) Hill K. - Эффективное программирование в Windows PowerShell [2009, PDF, RUS] TorrentFilm 899 KB
Программы jetAudio Music Player Plus v5.5.0 + Mod [Ru/Multi] - музыкальный плеер с широким выбором звуковых эффектов Garik014 34 MB
Программы [Графика] Фото редактор: Эффекты камеры для селфи / Photo Editor 1.0 [Android 4.1+, RUS + ENG] TorrentFilm 2 MB
Компьютерная литература (Программирование) Для профессионалов - Richter J. / Рихтер Дж. - Programming Applications for Microsoft Windows / Windows. Создание эффективных Win32-приложений с учётом специфики 64-разрядной версии Windows... TorrentFilm 98 MB
Разная литература Звуки природы - Голоса птиц - Лечебный эффект звуков (2015) MP3 достали все 449 MB
Зарубежные сериалы Масс Эффект / Mass Effect [01x01-05 из 6] (2014) WEB-DL 720p Белочка 2.24 GB
Фильмы (HD Rips | 720p, 1080p) Побочный эффект / Side Effects (2013) BDRip 1080p sergej644 7.76 GB
Фильмы (HD Rips | 720p, 1080p) Побочный эффект / Side Effects (2013) BDRip 720p от HELLYWOOD | Лицензия Russian Mafia 5.76 GB
Показать сообщения:    

Текущее время: Сегодня 16:58

Часовой пояс: GMT



Вы не можете начинать темы
Вы не можете отвечать на сообщения
Вы не можете редактировать свои сообщения
Вы не можете удалять свои сообщения
Вы не можете голосовать в опросах
Вы не можете прикреплять файлы к сообщениям
Вы не можете скачивать файлы