Эффект Лазаря / The Lazarus Effect (Дэвид Гелб / David Gelb) [2015, США, ужасы, триллер, BDRip] Dub (iTunes)

 
Автор Сообщение

TorrentFilm ®

Пол:

Стаж: 2 года

Сообщений: 7741



Награды: Нет

Торрент-статистика

Создавать темы 24-Сен-2015 00:07

[Цитировать]

Эффект Лазаря / The Lazarus Effect
Страна: США
Жанр: ужасы, триллер
Год выпуска: 2015
Продолжительность: 01:26:33
Перевод: Профессиональный (дублированный) iTunes
Cубтитры: нет
Оригинальная аудиодорожка: нет
Режиссер: Дэвид Гелб / David Gelb
В ролях: Марк Дюпласс, Оливия Уайлд, Дональд Гловер, Эван Питерс, Сара Болгер, Рэй Уайз, Скотт Шелдон, Эмили Келавос, Джеймс Эрл, Эми Акино
Описание: Команда любознательных студентов узнает секрет воскрешения людей из мертвых. Однако их открытие приводит к страшным последствиям.
Сэмпл: http://multi-up.com/1067799
Качество видео: BDRip (исходник The Lazarus Effect 2015 COMPLETE BLURAY-LAZERS)
Формат видео: AVI
Видео: Xvid 720x304 23.98fps 2 053 Kbps
Аудио: Dolby AC3 48000Hz 6ch 384kbps

MediaInfo

Format : AVI
Format/Info : Audio Video Interleave
File size : 1.42 GiB
Duration : 1h 23mn
Overall bit rate : 2 447 Kbps
Writing application : VirtualDubMod 1.5.10.3 (build 2550/release)
Video
ID : 0
Format : MPEG-4 Visual
Format profile : AdvancedSimple@L5
Format settings, BVOP : Yes
Format settings, QPel : No
Format settings, GMC : No warppoints
Format settings, Matrix : Custom
Codec ID : XVID
Codec ID/Hint : XviD
Duration : 1h 23mn
Bit rate : 2 053 Kbps
Width : 720 pixels
Height : 304 pixels
Display aspect ratio : 2.35:1
Frame rate : 23.976 fps
Resolution : 24 bits
Colorimetry : 4:2:0
Scan type : Progressive
Bits/(Pixel*Frame) : 0.391
Stream size : 1.19 GiB (84%)
Writing library : XviD 73
Audio
ID : 1
Format : AC-3
Format/Info : Audio Coding 3
Codec ID : 2000
Duration : 1h 23mn
Bit rate mode : Constant
Bit rate : 384 Kbps
Channel(s) : 6 channels
Channel positions : Front: L C R, Surround: L R, LFE
Sampling rate : 48.0 KHz
Stream size : 228 MiB (16%)
Alignment : Split accross interleaves
Interleave, duration : 42 ms (1.00 video frame)
Interleave, preload duration : 500 ms

Скриншот c названием фильма

Скриншоты

[Профиль] [ЛС]
Кто просматривает тему:

Форум Тема Автор Размер
Компьютерная литература (Программирование) Hill K. - Эффективное программирование в Windows PowerShell [2009, PDF, RUS] TorrentFilm 899 KB
Программы jetAudio Music Player Plus v5.5.0 + Mod [Ru/Multi] - музыкальный плеер с широким выбором звуковых эффектов Garik014 34 MB
Программы [Графика] Фото редактор: Эффекты камеры для селфи / Photo Editor 1.0 [Android 4.1+, RUS + ENG] TorrentFilm 2 MB
Компьютерная литература (Программирование) Для профессионалов - Richter J. / Рихтер Дж. - Programming Applications for Microsoft Windows / Windows. Создание эффективных Win32-приложений с учётом специфики 64-разрядной версии Windows... TorrentFilm 98 MB
Разная литература Звуки природы - Голоса птиц - Лечебный эффект звуков (2015) MP3 достали все 449 MB
Зарубежные сериалы Масс Эффект / Mass Effect [01x01-05 из 6] (2014) WEB-DL 720p Белочка 2.24 GB
Фильмы (HD Rips | 720p, 1080p) Побочный эффект / Side Effects (2013) BDRip 1080p sergej644 7.76 GB
Фильмы (HD Rips | 720p, 1080p) Побочный эффект / Side Effects (2013) BDRip 720p от HELLYWOOD | Лицензия Russian Mafia 5.76 GB
Показать сообщения:    

Текущее время: Сегодня 02:16

Часовой пояс: GMT



Вы не можете начинать темы
Вы не можете отвечать на сообщения
Вы не можете редактировать свои сообщения
Вы не можете удалять свои сообщения
Вы не можете голосовать в опросах
Вы не можете прикреплять файлы к сообщениям
Вы не можете скачивать файлы