Эффект колибри / Hummingbird (2013) BDRip 1080p | US-Transfer

 
Автор Сообщение

Russian Mafia ®

Пол:

Стаж: 1 год 8 месяцев

Сообщений: 4256



Награды: 10 (Подробнее)

Top Releaser 5 (Количество: 1) Mega Seeder 3 (Количество: 1) Top Releaser 4 (Количество: 1)
Торрент-статистика

Создавать темы 26-Сен-2015 07:51

[Цитировать]

«Месть не дает облегчения»
Информация о фильме
Название: Эффект колибри
Оригинальное название: Hummingbird
Год выхода: 2013
Жанр: Триллер, драма, криминал, боевик
Режиссер: Стивен Найт
В ролях: Джейсон Стэйтем, Агата Бузек, Бенедикт Вонг, Вики МакКлюр, Гер Райан, Юссуф Керкур, Энтони Моррис, Виктория Бьюик, Кристиан Брассингтон, Дэниэл Уэбб
О фильме:
Бывший спецназовец Джоуи Джонс пытается начать новую жизнь. Он соглашается работать на азиатскую мафию. Но проникая все глубже в криминальный мир родного города, он понимает, что не может спокойно смотреть на творящееся в нем беззаконие. Когда от рук бандитов погибает его возлюбленная Изабель, Джоуи решает восстановить справедливость. Он начинает расследование, которое ведет его на самый верх преступного синдиката.

Страна: США, Великобритания
Студия: Lionsgate, IM Global, Shoebox Films
Продолжительность: 01:40:23
Перевод: Дублированный |Blu-ray RUS| + Оригинал
Файл
Кодек: x264
Качество: BDRip 1080p (источник: BLUEBIRD / Blu-ray Disc / 1080p [US-Transfer])
Видео: 1920х800 (2.40:1), 9778 Kbps, 23.976 fps, 0.266 bit/pixel
Аудио #1: 48.0 kHz, AC3 Dolby Digital, 3/2 (L,C,R,l,r) + LFE ch, 640 kbps [Дубляж, Blu-ray RUS]
Аудио #2: 48.0 kHz, AC3 Dolby Digital, 3/2 (L,C,R,l,r) + LFE ch, 640 kbps [Английский]
Субтитры: Русские, английские [полные, SDH]
Семпл

x264

x264 [info]: frame I:1430 Avg QP:13.15 size:193294
x264 [info]: frame P:47033 Avg QP:15.54 size: 83074
x264 [info]: frame B:95940 Avg QP:16.69 size: 33120

MediaInfo

General
Unique ID : 182179307985441012880159161178374289990 (0x890E755CF57BC881B1C9201133483A46)
Complete name : E:Hummingbird.2013.x264.BDRip.1080p.US.Transfer.mkv
Format : Matroska
Format version : Version 2
File size : 7.75 GiB
Duration : 1h 40mn
Overall bit rate : 11.1 Mbps
Encoded date : UTC 2013-09-30 19:47:28
Writing application : mkvmerge v5.8.0 ('No Sleep / Pillow') built on Sep 2 2012 15:37:04
Writing library : libebml v1.2.3 + libmatroska v1.3.0
Video
ID : 1
Format : AVC
Format/Info : Advanced Video Codec
Format profile : High@L4.1
Format settings, CABAC : Yes
Format settings, ReFrames : 5 frames
Codec ID : V_MPEG4/ISO/AVC
Duration : 1h 40mn
Bit rate : 9 778 Kbps
Width : 1 920 pixels
Height : 800 pixels
Display aspect ratio : 2.40:1
Frame rate mode : Constant
Frame rate : 23.976 fps
Color space : YUV
Chroma subsampling : 4:2:0
Bit depth : 8 bits
Scan type : Progressive
Bits/(Pixel*Frame) : 0.266
Stream size : 6.70 GiB (86%)
Writing library : x264 core 138 r2358 9e941d1
Encoding settings : cabac=1 / ref=5 / deblock=1:-3:-3 / analyse=0x3:0x133 / me=tesa / subme=11 / psy=1 / psy_rd=1.00:0.00 / mixed_ref=1 / me_range=32 / chroma_me=1 / trellis=2 / 8x8dct=1 / cqm=0 / deadzone=21,11 / fast_pskip=0 / chroma_qp_offset=-2 / threads=12 / lookahead_threads=1 / sliced_threads=0 / nr=0 / decimate=0 / interlaced=0 / bluray_compat=0 / constrained_intra=0 / bframes=3 / b_pyramid=2 / b_adapt=2 / b_bias=0 / direct=3 / weightb=0 / open_gop=0 / weightp=2 / keyint=240 / keyint_min=23 / scenecut=40 / intra_refresh=0 / rc=2pass / mbtree=0 / bitrate=9778 / ratetol=1.0 / qcomp=0.60 / qpmin=0 / qpmax=69 / qpstep=4 / cplxblur=20.0 / qblur=0.5 / ip_ratio=1.40 / pb_ratio=1.30 / aq=1:1.00
Language : English
Default : Yes
Forced : No
Audio #1
ID : 2
Format : AC-3
Format/Info : Audio Coding 3
Mode extension : CM (complete main)
Format settings, Endianness : Big
Codec ID : A_AC3
Duration : 1h 40mn
Bit rate mode : Constant
Bit rate : 640 Kbps
Channel count : 6 channels
Channel positions : Front: L C R, Side: L R, LFE
Sampling rate : 48.0 KHz
Bit depth : 16 bits
Compression mode : Lossy
Stream size : 460 MiB (6%)
Title : AC3 5.1ch 640 kbps - Дубляж, Blu-ray RUS
Language : Russian
Default : Yes
Forced : No
Audio #2
ID : 3
Format : AC-3
Format/Info : Audio Coding 3
Mode extension : CM (complete main)
Format settings, Endianness : Big
Codec ID : A_AC3
Duration : 1h 40mn
Bit rate mode : Constant
Bit rate : 640 Kbps
Channel count : 6 channels
Channel positions : Front: L C R, Side: L R, LFE
Sampling rate : 48.0 KHz
Bit depth : 16 bits
Compression mode : Lossy
Stream size : 460 MiB (6%)
Title : AC3 5.1ch 640 kbps - Английский
Language : English
Default : No
Forced : No
Text #1
ID : 4
Format : UTF-8
Codec ID : S_TEXT/UTF8
Codec ID/Info : UTF-8 Plain Text
Title : Русские
Language : Russian
Default : No
Forced : No
Text #2
ID : 5
Format : UTF-8
Codec ID : S_TEXT/UTF8
Codec ID/Info : UTF-8 Plain Text
Title : Английские [полные]
Language : English
Default : No
Forced : No
Text #3
ID : 6
Format : UTF-8
Codec ID : S_TEXT/UTF8
Codec ID/Info : UTF-8 Plain Text
Title : Английские [SDH]
Language : English
Default : No
Forced : No
Menu
00:00:00.000 : en:Chapter 1
00:04:45.660 : en:Chapter 2
00:08:44.816 : en:Chapter 3
00:12:39.717 : en:Chapter 4
00:19:44.934 : en:Chapter 5
00:24:50.030 : en:Chapter 6
00:28:37.466 : en:Chapter 7
00:38:17.837 : en:Chapter 8
00:47:03.946 : en:Chapter 9
00:51:06.105 : en:Chapter 10
01:00:36.842 : en:Chapter 11
01:06:56.971 : en:Chapter 12
01:13:20.229 : en:Chapter 13
01:19:51.286 : en:Chapter 14
01:24:40.450 : en:Chapter 15
01:33:38.154 : en:Chapter 16
[Профиль] [ЛС]
Кто просматривает тему:

Форум Тема Автор Размер
Компьютерная литература (Программирование) Hill K. - Эффективное программирование в Windows PowerShell [2009, PDF, RUS] TorrentFilm 899 KB
Программы jetAudio Music Player Plus v5.5.0 + Mod [Ru/Multi] - музыкальный плеер с широким выбором звуковых эффектов Garik014 34 MB
Программы [Графика] Фото редактор: Эффекты камеры для селфи / Photo Editor 1.0 [Android 4.1+, RUS + ENG] TorrentFilm 2 MB
Компьютерная литература (Программирование) Для профессионалов - Richter J. / Рихтер Дж. - Programming Applications for Microsoft Windows / Windows. Создание эффективных Win32-приложений с учётом специфики 64-разрядной версии Windows... TorrentFilm 98 MB
Разная литература Звуки природы - Голоса птиц - Лечебный эффект звуков (2015) MP3 достали все 449 MB
Зарубежные сериалы Масс Эффект / Mass Effect [01x01-05 из 6] (2014) WEB-DL 720p Белочка 2.24 GB
Фильмы (HD Rips | 720p, 1080p) Побочный эффект / Side Effects (2013) BDRip 1080p sergej644 7.76 GB
Фильмы (HD Rips | 720p, 1080p) Побочный эффект / Side Effects (2013) BDRip 720p от HELLYWOOD | Лицензия Russian Mafia 5.76 GB
Показать сообщения:    

Текущее время: Сегодня 00:36

Часовой пояс: GMT



Вы не можете начинать темы
Вы не можете отвечать на сообщения
Вы не можете редактировать свои сообщения
Вы не можете удалять свои сообщения
Вы не можете голосовать в опросах
Вы не можете прикреплять файлы к сообщениям
Вы не можете скачивать файлы