Это смешно. Выпуск 7 (2015.01.03) SATRip

 
Автор Сообщение

oartemka178 ®

Пол:

Стаж: 4 года 10 месяцев

Сообщений: 12



Награды: Нет

Торрент-статистика

Создавать темы 03-Янв-2015 12:46

[Цитировать]

- Это смешно. Выпуск 7 (2015.01.03) SATRip - Режиссер / Телекомпания: Россия
Русское название: Это смешно
Год выпуска: 2014
Жанр: Юмор
Выпущено: Россия
Описание:
22 ноября в 15:00 на канале "Россия" стартует новый юмористический проект "Это смешно". Необычное шоу столкнет на сцене юмористов самых разных поколений и жанров в борьбе не просто за победу, а за целое собственное шоу. Наш корреспондент посетил съемки новой программы и пообщался с продюсером проекта Евгением Донских.
Впервые на Телеканале "Россия" – соревнование профессиональных юмористов!
Юмор без границ
"Это смешно" – концерт и конкурс одновременно.
В борьбу вступают десять профессиональных юмористов! Здесь нет новичков: каждый из них добился успеха, над их шутками смеется вся страна.
В шоу участвуют: Михаил Башкатов, Александр Волохов, Ашот Кещян, Наталья Коростелева, Александр Морозов, дуэт "Новые Русские Бабки", Евгений Сморигин, Светлана Пермякова, дуэт Сергея Писаренко и Евгения Никишина, Игорь Христенко.
Смех по правилам
Каждую неделю артисты готовят выступление в одном из десяти юмористических жанров. У каждого участника будет только один шанс выступить в каждом из жанров.
Участникам предстоит выполнить задания: монолог, эстрадный номер, музыкальный номер, пародия, музыкальная пародия, импровизация, интерактив, комедия положений, клоунада, фирменный стиль.
Каждый должен доказать зрителю: он умеет это делать смешно.
Максимальная оценка за выступление – 100 баллов. 50 из них – в руках жюри, и еще 50 баллов могут дать зрители в зале.
Участник, который по итогам десяти программ наберет наибольшее количество баллов, получит главный приз: собственное шоу на телеканале "Россия"!
Серьезное жюри
Судит соревнование авторитетное жюри: кинорежиссер Алла Сурикова (комедии "Ищите женщину", "Человек с бульвара Капуцинов" и многие другие), телеведущий и писатель Андрей Максимов (программа "Дежурный по стране" с Михаилом Жванецким), боксер и политик Николай Валуев, актер Виктор Раков, актриса Дарья Сагалова. Кроме них, свою оценку ставят зрители в зале.
"Это смешно" – шоу, которого ждали миллионы поклонников юмора!
Ведущий: Борис Смолкин и Дмитрий Губерниев.
Продолжительность: 02:13:15
Видеокодек: Xvid
Битрейт видео: ~1800 Кбит/сек
Размер кадра: 720 x 400
Качество видео: SATRip
Аудиокодек: AC-3, 2ch.
Битрейт аудио: 192 Кбит/сек

MediaInfo:

Формат : AVI
Формат/Информация : Audio Video Interleave
Размер файла : 1,86 Гбайт
Продолжительность : 2 ч. 13 м.
Общий поток : 2001 Кбит/сек
Программа кодирования : VirtualDubMod 1.5.10.3 | www.virtualdub-fr.org || (build 2550/release)
Библиотека кодирования : VirtualDubMod build 2550/release
Видео
Идентификатор : 0
Формат : MPEG-4 Visual
Профиль формата : Advanced Simple@L5
Параметр BVOP формата : 2
Параметр QPel формата : Нет
Параметр GMC формата : Без точки перехода
Параметр матрицы формата : Default (H.263)
Идентификатор кодека : XVID
Идентификатор кодека/Подсказка : XviD
Продолжительность : 2 ч. 13 м.
Битрейт : 1799 Кбит/сек
Ширина : 720 пикселей
Высота : 400 пикселей
Соотношение сторон : 16:9
Частота кадров : 25,000 кадров/сек
Цветовое пространство : YUV
Субдискретизация насыщенности : 4:2:0
Битовая глубина : 8 бит
Тип развёртки : Прогрессивная
Метод сжатия : С потерями
Бит/(Пиксели*Кадры) : 0.250
Размер потока : 1,67 Гбайт (90%)
Библиотека кодирования : XviD 1.2.1 (UTC 2008-12-04)
Аудио
Идентификатор : 1
Формат : AC-3
Формат/Информация : Audio Coding 3
Расширение режима : CM (complete main)
Параметр Endianness формата : Big
Идентификатор кодека : 2000
Продолжительность : 2 ч. 13 м.
Вид битрейта : Постоянный
Битрейт : 192 Кбит/сек
Каналы : 2 канала
Расположение каналов : Front: L R
Частота : 48,0 КГц
Битовая глубина : 16 бит
Метод сжатия : С потерями
Размер потока : 183 Мбайт (10%)
Выравнивание : Разделение по промежуткам
Продолжительность промежутка : 40 мс. (1,00 видеокадр)
Время предзагрузки промежутка : 500 мс.
Скриншоты: Rip by -=DeMoH=-
[Профиль] [ЛС]
Кто просматривает тему:

Показать сообщения:    

Текущее время: Сегодня 20:59

Часовой пояс: GMT



Вы не можете начинать темы
Вы не можете отвечать на сообщения
Вы не можете редактировать свои сообщения
Вы не можете удалять свои сообщения
Вы не можете голосовать в опросах
Вы не можете прикреплять файлы к сообщениям
Вы не можете скачивать файлы