Это не то, что ты думаешь, дорогая / To Nie Tak Jak Myslisz, Kotku (Славомир Крынски / Slawomir Krynski) [2008, Польша, комедия, DVDRip] DVO

 
Автор Сообщение

painkiller ®

Стаж: 2 года 3 месяца

Сообщений: 582



Награды: Нет

Торрент-статистика

Создавать темы 23-Авг-2014 01:02

[Цитировать]

Это не то, что ты думаешь, дорогая / To Nie Tak Jak Myslisz, Kotku
Страна: Польша
Студия: Figaro Film Production Ltd.
Жанр: комедия
Год выпуска: 2008
Продолжительность: 01:41:09
Перевод: Профессиональный (двухголосый закадровый)
Cубтитры: нет
Оригинальная аудиодорожка: польский
Режиссер: Славомир Крынски / Slawomir Krynski
В ролях: Кот (Tomasz Kot), Малгожата Бучковска (Malgorzata Buczkowska), Славомир Оржеховски (Slawomir Orzechowski), Михал Баёр (Michal Bajor), Ежи Схейбал (Jerzy Schejbal), Малгожата Коцик (Malgorzata Kocik), Рышард Барыш (Ryszard Barycz), Йоланта Мьелех (Jolanta Mielech), Михал Пьела (Michal Piela)
Описание: Главный хирург Польши доктор Гашински организовал съезд на котором собирается объявить своего преемника. Известный нейрохирург Филип Хофман приезжает на этот съезд со своей любовницей. Гашинский, считая Хофмана честным и порядочным, сообщает ему, что преемником будет он. В то же время он принимает любовницу Хофмана за его жену. В этот же отель приезжает ассистент Хофмана который ждет приезда невесты и настоящая жена Хофмана со своим любовником который только что грабанул банк. Чтобы избежать скандала Хофман уговаривает ассистента выдать его любовницу за свою невесту. С этого начинается жуткая путаница в которой все выдают себя не за тех кем являются и врут чем дальше тем больше.
II Сэмпл II IMDB II
Доп. информация:
За исходник спасибо editbox
Звук записан с т/к Еврокино
Качество видео: DVDRip
Формат видео: AVI
Видео: Xvid 720x400 (16:9) 25.0fps Bit rate 2365Kbps b/p 0.329
Аудио 1: AC3 48.0 KHz 2ch. 192kbps rus dvo
Аудио 2: AC3 48.0 KHz 6ch. 448kbps pol

MediaInfo

Общее
Полное имя : E:\torrent\To.Nie.Tak.Jak.Myslisz.Kotku.2008.DVDrip.avi
Формат : AVI
Формат/Информация : Audio Video Interleave
Профиль формата : OpenDML
Размер файла : 2,14 Гбайт
Продолжительность : 1 ч. 41 м.
Общий поток : 3024 Кбит/сек
Программа кодирования : VirtualDubMod 1.5.10.3 (build 2550/release)
Библиотека кодирования : VirtualDubMod build 2550/release
Видео
Идентификатор : 0
Формат : MPEG-4 Visual
Профиль формата : Advanced Simple@L5
Параметр BVOP формата : 2
Параметр QPel формата : Нет
Параметр GMC формата : Без точки перехода
Параметр матрицы формата : Default (H.263)
Идентификатор кодека : XVID
Идентификатор кодека/Подсказка : XviD
Продолжительность : 1 ч. 41 м.
Битрейт : 2365 Кбит/сек
Ширина : 720 пикселей
Высота : 400 пикселей
Соотношение сторон : 16:9
Частота кадров : 25,000 кадров/сек
Цветовое пространство : YUV
Субдискретизация насыщенности : 4:2:0
Битовая глубина : 8 бит
Тип развёртки : Прогрессивная
Метод сжатия : С потерями
Бит/(Пиксели*Кадры) : 0.329
Размер потока : 1,67 Гбайт (78%)
Библиотека кодирования : XviD 1.2.1 (UTC 2008-12-04)
Аудио #1
Идентификатор : 1
Формат : AC-3
Формат/Информация : Audio Coding 3
Расширение режима : CM (complete main)
Параметр Endianness формата : Big
Идентификатор кодека : 2000
Продолжительность : 1 ч. 41 м.
Вид битрейта : Постоянный
Битрейт : 192 Кбит/сек
Каналы : 2 канала
Расположение каналов : Front: L R
Частота : 48,0 КГц
Битовая глубина : 16 бит
Метод сжатия : С потерями
Размер потока : 139 Мбайт (6%)
Выравнивание : Разделение по промежуткам
Продолжительность промежутка : 40 мс. (1,00 видеокадр)
Время предзагрузки промежутка : 500 мс.
Аудио #2
Идентификатор : 2
Формат : AC-3
Формат/Информация : Audio Coding 3
Расширение режима : CM (complete main)
Параметр Endianness формата : Big
Идентификатор кодека : 2000
Продолжительность : 1 ч. 41 м.
Вид битрейта : Постоянный
Битрейт : 448 Кбит/сек
Каналы : 6 каналов
Расположение каналов : Front: L C R, Side: L R, LFE
Частота : 48,0 КГц
Битовая глубина : 16 бит
Метод сжатия : С потерями
Размер потока : 324 Мбайт (15%)
Выравнивание : Разделение по промежуткам
Продолжительность промежутка : 40 мс. (1,00 видеокадр)
Время предзагрузки промежутка : 500 мс.

Скриншот c названием фильма

Скриншоты


[Профиль] [ЛС]

Создавать темы 06-Авг-2015 23:06 (спустя 11 месяцев 14 дней)

Топик был перенесен из форума Фильмы до 2014 года в форум Фильмы до 2012 года
sergej644
 

Создавать темы 12-Июн-2016 08:51 (спустя 1 год 9 месяцев)

Топик был перенесен из форума Фильмы 2011 года в форум Фильмы 2006-2008 года
Russian Mafia
 
Кто просматривает тему:

Показать сообщения:    

Текущее время: Сегодня 09:57

Часовой пояс: GMT



Вы не можете начинать темы
Вы не можете отвечать на сообщения
Вы не можете редактировать свои сообщения
Вы не можете удалять свои сообщения
Вы не можете голосовать в опросах
Вы не можете прикреплять файлы к сообщениям
Вы не можете скачивать файлы