Это моя собака (Александр Итыгилов) [2012, Россия, Украина, мелодрама, HDTV 1080i]

 
Автор Сообщение

TorrentFilm ®

Пол:

Стаж: 2 года

Сообщений: 7741



Награды: Нет

Торрент-статистика

Создавать темы 01-Янв-2016 00:10

[Цитировать]

Это моя собака
Страна: Россия, Украина
Жанр: мелодрама
Год выпуска: 2012
Продолжительность: 01:29:58
Режиссер: Александр Итыгилов младший
В ролях: Мария Куликова, Андрей Чернышов, Денис Матросов, Геннадий Смирнов, Олеся Жураковская, Наталья Васько, Ольга Лукьяненко, Анатолий Зиновенко, Екатерина Кистень, Татьяна Печенкина, Людмила Загорская, Олег Примогенов, Вадим Кононов, Кристина Синельник, Ольга Радчук, Игорь Гнездилов, Георгий Поволоцкий, Александр Безсмертный, Ольга Матешко, Дмитрий Галуза, Александр Науменко
Описание: Пять лет Ирина безропотно ждала, пока ее возлюбленный Костя разведется с женой и сделает ей предложение. Наконец долгожданный день настал: Константин приглашает Иру в ресторан и торжественно объявляет, что купил обручальные кольца. Вот только второе кольцо предназначается не ей, а дочке начальника. У Ирины сложившаяся ситуация вызывает шок. Не в силах смириться с предательством любимого мужчины она решает наложить на себя руки. У входа в аптеку, куда бедная женщина отправляется за смертельной дозой снотворного, она встречает брошенную собаку. Узнав о том, что несчастную псину везут на живодерню, Ирина проникается к ней жалостью и решает забрать домой...
Доп. информация: Запись чистая. Без посторонних надписей. Выкладывается, как есть.
Релиз -
Семпл: http://multi-up.com/812378
Тип релиза: HDTV 1080i
Контейнер: MPEG-TS
Видео: AVC 1920x1080 (16:9), 25 fps, 7518 Kbps, 0.145 bit/pixel
Аудио: MPEG Audio, 48.0 KHz, 224 Kbps, 2 channels

MI

ID : 1 (0x1)
Complete name : Это моя собака (Александр Итыгилов) (2012, мелодрама, HDTV) (MYDIMKA).ts
Format : MPEG-TS
File size : 5.12 GiB
Duration : 1h 29mn
Overall bit rate mode : Variable
Overall bit rate : 8 147 Kbps
Video
ID : 69 (0x45)
Menu ID : 1 (0x1)
Format : AVC
Format/Info : Advanced Video Codec
Format profile : High@L4.0
Format settings, CABAC : Yes
Format settings, ReFrames : 3 frames
Codec ID : 27
Duration : 1h 29mn
Bit rate : 7 518 Kbps
Width : 1 920 pixels
Height : 1 080 pixels
Display aspect ratio : 16:9
Frame rate : 25.000 fps
Standard : Component
Color space : YUV
Chroma subsampling : 4:2:0
Bit depth : 8 bits
Scan type : Interlaced
Scan order : Top Field First
Bits/(Pixel*Frame) : 0.145
Stream size : 4.73 GiB (92%)
Color primaries : BT.709
Transfer characteristics : BT.709
Matrix coefficients : BT.709
Audio
ID : 68 (0x44)
Menu ID : 1 (0x1)
Format : MPEG Audio
Format version : Version 1
Format profile : Layer 2
Codec ID : 3
Duration : 1h 29mn
Bit rate mode : Constant
Bit rate : 224 Kbps
Channel(s) : 2 channels
Sampling rate : 48.0 KHz
Compression mode : Lossy
Delay relative to video : -40ms
Stream size : 144 MiB (3%)
Language : English

Скриншот c названием фильма

Скриншоты


[Профиль] [ЛС]
Кто просматривает тему:

Показать сообщения:    

Текущее время: Сегодня 03:22

Часовой пояс: GMT



Вы не можете начинать темы
Вы не можете отвечать на сообщения
Вы не можете редактировать свои сообщения
Вы не можете удалять свои сообщения
Вы не можете голосовать в опросах
Вы не можете прикреплять файлы к сообщениям
Вы не можете скачивать файлы