Этот фильм разбит / This Movie Is Broken (Брюс МакДональд / Bruce McDonald) [2010, Канада, драма, мелодрама, музыка, DVDRip] VO (Маринко Пэ)

 
Автор Сообщение

painkiller ®

Стаж: 2 года 3 месяца

Сообщений: 582



Награды: Нет

Торрент-статистика

Создавать темы 16-Авг-2014 01:26

[Цитировать]

Этот фильм разбит / This Movie Is Broken
Страна: Канада
Жанр: драма, мелодрама, музыка
Год выпуска: 2010
Продолжительность: 01:27:22
Перевод: Одноголосый закадровый (Маринко Пэ)
Cубтитры: нет
Режиссер: Брюс МакДональд / Bruce McDonald
В ролях: Джорджина Рейли, Грег Кэлдерон, Керр Хьюит, Линди Гринвуд, Трэйси Райт, Стивен МакХэтти, Мэйко Нгуйен, Бобби Сахни, Джейсон Коллетт, Лесли Фейст...
Описание: Бруно просыпается в постели рядом с Кэролайн, девушкой в которую он давно влюблён. Но на следующий день она должна уезжать на учёбу во Францию, и, возможно, эта ночь была для неё просто долгожданным прощальным подарком её давнему другу. Так что сегодняшний вечер - последний шанс для Бруно. И как раз в этот вечер её любимая группа "Broken Social Scene" устраивает концерт. Может, если Бруно с помощью своего приятеля Блэйка сможет достать билеты и подарить Кэролайн незабываемое событие, он сможет удержать свою мечту.
Доп. информация: http://www.kinopoisk.ru/film/493166/
Сэмпл: http://multi-up.com/966586
Качество видео: DVDRip
Формат видео: AVI
Видео: XviD, 640х272, 2.35:1, 23.976 fps, 952 Kbps
Аудио: MP3, 48.0 KHz, 160 Kbps, 2 channels

MediaInfo

General
Complete name : F:\АРУТРЕКЕР\This Movie is Broken 2010 rus.avi
Format : AVI
Format/Info : Audio Video Interleave
File size : 701 MiB
Duration : 1h 27mn
Overall bit rate : 1 121 Kbps
Video
ID : 0
Format : MPEG-4 Visual
Format profile : Advanced Simple@L5
Format settings, BVOP : No
Format settings, QPel : No
Format settings, GMC : No warppoints
Format settings, Matrix : Default (H.263)
Codec ID : XVID
Codec ID/Hint : XviD
Duration : 1h 27mn
Bit rate : 952 Kbps
Width : 640 pixels
Height : 272 pixels
Display aspect ratio : 2.35:1
Frame rate : 23.976 fps
Color space : YUV
Chroma subsampling : 4:2:0
Bit depth : 8 bits
Scan type : Progressive
Compression mode : Lossy
Bits/(Pixel*Frame) : 0.228
Stream size : 595 MiB (85%)
Writing library : XviD 62
Audio
ID : 1
Format : MPEG Audio
Format version : Version 1
Format profile : Layer 3
Codec ID : 55
Codec ID/Hint : MP3
Duration : 1h 27mn
Bit rate mode : Constant
Bit rate : 160 Kbps
Channel(s) : 2 channels
Sampling rate : 48.0 KHz
Compression mode : Lossy
Stream size : 100.0 MiB (14%)
Alignment : Split accross interleaves
Interleave, duration : 42 ms (1.02 video frame)
Writing library : LAMELAME_MAJOR_VERSI

Скриншот c названием фильма

Скриншоты

[Профиль] [ЛС]

Создавать темы 06-Авг-2015 23:09 (спустя 11 месяцев 21 день)

Топик был перенесен из форума Фильмы до 2014 года в форум Фильмы до 2012 года
sergej644
 

Создавать темы 12-Июн-2016 07:54 (спустя 1 год 9 месяцев)

Топик был перенесен из форума Фильмы 2011 года в форум Фильмы 2010 года
Russian Mafia
 
Кто просматривает тему:

Показать сообщения:    

Текущее время: Сегодня 08:54

Часовой пояс: GMT



Вы не можете начинать темы
Вы не можете отвечать на сообщения
Вы не можете редактировать свои сообщения
Вы не можете удалять свои сообщения
Вы не можете голосовать в опросах
Вы не можете прикреплять файлы к сообщениям
Вы не можете скачивать файлы