Этот неловкий момент / Un moment d'égarement (2015) BDRip 720p | Чистый звук

 
Автор Сообщение

BOSS ®

Пол:

Стаж: 2 года 1 месяц

Сообщений: 3735

Откуда: ODESSA



Награды: 20 (Подробнее)

Mega Seeder 5 (Количество: 1) Top Seeder 2 (Количество: 1) Top Seeder 3 (Количество: 1)
Торрент-статистика

Создавать темы 23-Окт-2015 17:42

[Цитировать]

Информация о фильме
Название: Этот неловкий момент
Оригинальное название: Un moment d'égarement
Год выхода: 2015
Жанр: комедия
Режиссер: Жан-Франсуа Рише
В ролях: Венсан Кассель, Франсуа Клюзе, Алис Исааз, Лола Ле Ланн, Филипп Наон
О фильме: Два закадычных друга со своими дочерьми проводят отпуск на Ривьере, где на солнечных пляжах 42-летнему отцу семейства не устоять перед чарами соблазнительной 18-летней красотки и предстоит по уши влюбиться. Все бы ничего, да только прелестная девушка является дочерью лучшего друга — строгого отца, грозящего пристрелить любого, кто подойдет ближе, чем на шаг, к обожаемой малышке.

Выпущено: Франция / Entre Chien et Loup, La Petite Reine
Продолжительность: 01:45:28
Озвучивание: Дублированное [Чистый звук]
Файл
Формат: MKV
Качество: BDRip 720p
Видео: MPEG-4 AVC, 5312 kb/s, 1280x688
Аудио: Russian: AC3, 192 kb/s (2 ch) / France: DTS, 1510 kb/s (6 ch)

MI

Format : Matroska
Format version : Version 2
File size : 5.17 GiB
Duration : 1h 45mn
Overall bit rate : 7 020 Kbps
Encoded date : UTC 2015-10-23 15:01:33
Writing application : mkvmerge v8.3.0 ('Over the Horizon') 64bit
Writing library : libebml v1.3.1 + libmatroska v1.4.2
DURATION : 01:45:28.800000000
NUMBER_OF_FRAMES : 197775
NUMBER_OF_BYTES : 151891200
_STATISTICS_WRITING_APP : mkvmerge v8.3.0 ('Over the Horizon') 64bit
_STATISTICS_WRITING_DATE_UTC : 2015-10-23 15:01:33
_STATISTICS_TAGS : BPS DURATION NUMBER_OF_FRAMES NUMBER_OF_BYTES
Video
ID : 1
Format : AVC
Format/Info : Advanced Video Codec
Format profile : High@L4.1
Format settings, CABAC : Yes
Format settings, ReFrames : 12 frames
Codec ID : V_MPEG4/ISO/AVC
Duration : 1h 45mn
Bit rate : 5 312 Kbps
Width : 1 280 pixels
Height : 688 pixels
Display aspect ratio : 1.85:1
Frame rate mode : Constant
Frame rate : 24.000 fps
Color space : YUV
Chroma subsampling : 4:2:0
Bit depth : 8 bits
Scan type : Progressive
Bits/(Pixel*Frame) : 0.251
Stream size : 3.82 GiB (74%)
Writing library : x264 core 148 r2597 e86f3a1
Encoding settings : cabac=1 / ref=12 / deblock=1:-3:-3 / analyse=0x3:0x133 / me=umh / subme=11 / psy=1 / psy_rd=0.99:0.05 / mixed_ref=1 / me_range=64 / chroma_me=1 / trellis=2 / 8x8dct=1 / cqm=0 / deadzone=6,6 / fast_pskip=0 / chroma_qp_offset=-3 / threads=6 / lookahead_threads=1 / sliced_threads=0 / nr=0 / decimate=0 / interlaced=0 / bluray_compat=0 / constrained_intra=0 / bframes=8 / b_pyramid=2 / b_adapt=2 / b_bias=0 / direct=3 / weightb=1 / open_gop=1 / weightp=2 / keyint=250 / keyint_min=24 / scenecut=40 / intra_refresh=0 / rc_lookahead=250 / rc=2pass / mbtree=1 / bitrate=5312 / ratetol=1.0 / qcomp=0.60 / qpmin=0 / qpmax=69 / qpstep=4 / cplxblur=20.0 / qblur=0.5 / vbv_maxrate=50000 / vbv_bufsize=50000 / nal_hrd=none / filler=0 / ip_ratio=1.40 / aq=2:1.00
Language : English
Default : Yes
Forced : No
Color range : Limited
Color primaries : BT.709
Transfer characteristics : BT.709
Matrix coefficients : BT.709
DURATION : 01:45:28.792000000
NUMBER_OF_FRAMES : 151891
NUMBER_OF_BYTES : 4198405118
_STATISTICS_WRITING_APP : mkvmerge v8.3.0 ('Over the Horizon') 64bit
_STATISTICS_WRITING_DATE_UTC : 2015-10-23 15:01:33
_STATISTICS_TAGS : BPS DURATION NUMBER_OF_FRAMES NUMBER_OF_BYTES
Audio #1
ID : 2
Format : AC-3
Format/Info : Audio Coding 3
Mode extension : CM (complete main)
Format settings, Endianness : Big
Codec ID : A_AC3
Duration : 1h 45mn
Bit rate mode : Constant
Bit rate : 192 Kbps
Channel(s) : 2 channels
Channel positions : Front: L R
Sampling rate : 48.0 KHz
Bit depth : 16 bits
Compression mode : Lossy
Stream size : 145 MiB (3%)
Language : Russian
Default : Yes
Forced : No
Audio #2
ID : 3
Format : DTS
Format/Info : Digital Theater Systems
Mode : 16
Format settings, Endianness : Big
Codec ID : A_DTS
Duration : 1h 45mn
Bit rate mode : Constant
Bit rate : 1 509 Kbps
Channel(s) : 6 channels
Channel positions : Front: L C R, Side: L R, LFE
Sampling rate : 48.0 KHz
Bit depth : 16 bits
Compression mode : Lossy
Stream size : 1.11 GiB (21%)
Language : French
Default : No
Forced : No
Text
ID : 4
Format : PGS
Muxing mode : zlib
Codec ID : S_HDMV/PGS
Codec ID/Info : Picture based subtitle format used on BDs/HD-DVDs
Title : French SDH
Default : No
Forced : No
Menu
00:00:00.000 : en:00:00:00.000
00:10:28.500 : en:00:10:28.500
00:21:09.583 : en:00:21:09.583
00:32:47.542 : en:00:32:47.542
00:43:19.833 : en:00:43:19.833
00:50:58.792 : en:00:50:58.792
01:02:14.292 : en:01:02:14.292
01:12:41.208 : en:01:12:41.208
01:22:54.542 : en:01:22:54.542
01:30:28.042 : en:01:30:28.042
01:36:04.375 : en:01:36:04.375
01:40:56.083 : en:01:40:56.083

Скриншоты

[Профиль] [ЛС]
Кто просматривает тему:

Показать сообщения:    

Текущее время: Сегодня 06:16

Часовой пояс: GMT



Вы не можете начинать темы
Вы не можете отвечать на сообщения
Вы не можете редактировать свои сообщения
Вы не можете удалять свои сообщения
Вы не можете голосовать в опросах
Вы не можете прикреплять файлы к сообщениям
Вы не можете скачивать файлы