Этим утром в Нью-Йорке / The Angriest Man in Brooklyn (Фил Олден Робинсон / Phil Alden Robinson) [2014, США, драма, комедия, BDRip] Dub

 
Автор Сообщение

reversefile ®

Пол:

Стаж: 4 года 5 месяцев

Сообщений: 842

Откуда: ReverseFile.org



Награды: Нет

Торрент-статистика

Создавать темы 13-Авг-2014 01:00

[Цитировать]

Этим утром в Нью-Йорке / The Angriest Man in Brooklyn-«Измени жизнь за 90 минут» -Страна: США
Жанр: драма, комедия
Год выпуска: 2014
Продолжительность: 01:23:43
Перевод: Профессиональный (дублированный) | Студия "CineLab SoundMix" |
Cубтитры: нет
Оригинальная аудиодорожка: нет-Режиссер: Фил Олден Робинсон / Phil Alden Robinson-В ролях: Робин Уильямс, Мила Кунис, Питер Динклэйдж, Мелисса Лео, Хамиш Линклэйтер, Саттон Фостер, Джеймс Эрл Джонс, Ричард Кайнд, Дэниэл Рэймонт, Крис Гезерд....-Описание: Женщина-врач по ошибке сообщает одному вредному пациенту, что ему осталось жить полтора часа. Стремясь исправить свою адскую оплошность, она устремляется на поиски человека, который решил, пока не поздно, исправить все ошибки, совершенные им в жизни.-Автор рипа: _Flash- -Качество видео: BDRip | The.Angriest.Man.in.Brooklyn.2014.1080p.BluRay.Remux.x264.Rus.Eng.Subs-HDWinG |
Формат видео: AVI
Видео: 720x400, 23.976 fps, XviD build 73 ~2290 kbps avg, 0.332 bit/pixel
Аудио: 48 kHz, AC3 Dolby Digital, 2/0 (L,R) ch, ~192.00 kbps
-

Дополнительно о фильме:

Производство, студия дубляжа, прокат:

MediaInfo

General
Complete name : D:\Rip's_By_Flash\The.Angriest.Man.in.Brooklyn.BDRip_By_Flash.avi
Format : AVI
Format/Info : Audio Video Interleave
File size : 1.46 GiB
Duration : 1h 23mn
Overall bit rate : 2 492 Kbps
Writing application : VirtualDubMod 1.5.10.3 | www.virtualdub-fr.org || (build 2550/release)
Writing library : VirtualDubMod build 2550/release
Video
ID : 0
Format : MPEG-4 Visual
Format profile : Advanced Simple@L5
Format settings, BVOP : 1
Format settings, QPel : No
Format settings, GMC : No warppoints
Format settings, Matrix : Custom
Codec ID : XVID
Codec ID/Hint : XviD
Duration : 1h 23mn
Bit rate : 2 290 Kbps
Width : 720 pixels
Height : 400 pixels
Display aspect ratio : 16:9
Frame rate : 23.976 fps
Color space : YUV
Chroma subsampling : 4:2:0
Bit depth : 8 bits
Scan type : Progressive
Compression mode : Lossy
Bits/(Pixel*Frame) : 0.332
Stream size : 1.34 GiB (92%)
Writing library : XviD 73
Audio
ID : 1
Format : AC-3
Format/Info : Audio Coding 3
Mode extension : CM (complete main)
Format settings, Endianness : Big
Codec ID : 2000
Duration : 1h 23mn
Bit rate mode : Constant
Bit rate : 192 Kbps
Channel(s) : 2 channels
Channel positions : Front: L R
Sampling rate : 48.0 KHz
Bit depth : 16 bits
Compression mode : Lossy
Stream size : 115 MiB (8%)
Alignment : Split accross interleaves
Interleave, duration : 42 ms (1.00 video frame)
Interleave, preload duration : 500 ms

Скриншот c названием фильма

Скриншоты

[Профиль] [ЛС]
Кто просматривает тему:

Показать сообщения:    

Текущее время: Сегодня 20:11

Часовой пояс: GMT



Вы не можете начинать темы
Вы не можете отвечать на сообщения
Вы не можете редактировать свои сообщения
Вы не можете удалять свои сообщения
Вы не можете голосовать в опросах
Вы не можете прикреплять файлы к сообщениям
Вы не можете скачивать файлы