Эта сумасшедшая молодежь / Yeh Jawaani Hai Deewani (2013) BDRip 720p | P, L

 
Автор Сообщение

Russian Mafia ®

Пол:

Стаж: 1 год 8 месяцев

Сообщений: 4257



Награды: 10 (Подробнее)

Top Releaser 3 (Количество: 1) За внесенный вклад в развитие сайта (Количество: 1) Mega Seeder 4 (Количество: 1)
Торрент-статистика

Создавать темы 13-Авг-2016 08:15

[Цитировать]

Эта сумасшедшая молодежьYeh Jawaani Hai Deewani- Страна: Индия
Жанр: мюзикл, драма, мелодрама, комедия,
Год выпуска: 2013
Продолжительность: 02:40:31
Перевод: Профессиональный (многоголосый, закадровый), Любительский (многоголосый, закадровый)
Субтитры: русские (на песни).-Режиссер: Аян Мукхерджи / Ayan Mukherjee-В ролях: Ранбир Капур, Дипика Падукон, Адитья Рой Капур, Калки Коечлин, Кунаал Рой Капур, Мадхури Диксит, Фарук Шайх, Долли Ахлувалиа, Танви Азми, Аниса Батт-Описание: Это история отношений двух молодых людей, впервые встретившихся сразу после колледжа. Тогда желание реализовать себя в жизни помешало им быть вместе, но спустя почти десять лет они встречаются снова, уже с багажом реализованных и нереализованных желаний и планов, чтобы испытать счастье любви.- -Семпл-Качество: BDRip
Контейнер: MKV
Видео: AVC, 1280x544 (2.35:1), 7114 Kbps, 24 fps, 0,426 bpp
Аудио №1: русский / AC3 / 2.0 / 48 kHz / 192 kbps / MVO ( Red Media )
Аудио №2: русский / AC3 / 5.1 / 48 kHz / 448 kbps / MVO ( ICG по заказу RG GeneralFilm )
Аудио №3: хинди / AC3 / 5.1 / 48 kHz / 640 kbps
Навигация по главам: есть-

Media Info

*************************************************************************
x264 [info]: frame I:2093 Avg QP:16.15 size:124517
x264 [info]: frame P:53053 Avg QP:17.98 size: 65059
x264 [info]: frame B:176003 Avg QP:19.64 size: 28722
*************************************************************************
Формат : Matroska
Версия формата : Version 2
Размер файла : 9,60 Гбайт
Продолжительность : 2 ч. 40 м.
Общий поток : 8565 Кбит/сек
Название фильма : = Эта сумасшедшая молодежь / Yeh Jawaani Hai Deewani (2013) BDRip 720p by SC Kosmos =
Дата кодирования : UTC 2016-07-21 09:58:49
Программа кодирования : mkvmerge v5.8.0 ('No Sleep / Pillow') built on Sep 2 2012 15:37:04
Библиотека кодирования : libebml v1.2.3 + libmatroska v1.3.0
Attachment : Yes
Видео
Идентификатор : 1
Формат : AVC
Формат/Информация : Advanced Video Codec
Профиль формата : High@L4.1
Параметр CABAC формата : Да
Параметр ReFrames формата : 10 кадров
Идентификатор кодека : V_MPEG4/ISO/AVC
Продолжительность : 2 ч. 40 м.
Битрейт : 7115 Кбит/сек
Ширина : 1280 пикселей
Высота : 544 пикселя
Соотношение сторон : 2,35:1
Режим частоты кадров : Постоянный
Частота кадров : 24,000 кадра/сек
Цветовое пространство : YUV
Субдискретизация насыщенности : 4:2:0
Битовая глубина : 8 бит
Тип развёртки : Прогрессивная
Бит/(Пиксели*Кадры) : 0.426
Размер потока : 7,98 Гбайт (83%)
Заголовок : Эта сумасшедшая молодежь / Yeh Jawaani Hai Deewani (2013) BDRip 720p by SC Kosmos
Библиотека кодирования : x264 core 146 r2538 121396c
Настройки программы : cabac=1 / ref=10 / deblock=1:-3:-3 / analyse=0x3:0x113 / me=umh / subme=11 / psy=1 / psy_rd=1.00:0.05 / mixed_ref=1 / me_range=32 / chroma_me=1 / trellis=2 / 8x8dct=1 / cqm=0 / deadzone=21,11 / fast_pskip=0 / chroma_qp_offset=-3 / threads=12 / lookahead_threads=2 / sliced_threads=0 / nr=0 / decimate=1 / interlaced=0 / bluray_compat=0 / constrained_intra=0 / bframes=8 / b_pyramid=2 / b_adapt=2 / b_bias=0 / direct=3 / weightb=1 / open_gop=0 / weightp=2 / keyint=240 / keyint_min=24 / scenecut=40 / intra_refresh=0 / rc_lookahead=50 / rc=crf / mbtree=0 / crf=17.0 / qcomp=0.60 / qpmin=0 / qpmax=69 / qpstep=4 / vbv_maxrate=62500 / vbv_bufsize=78125 / crf_max=0.0 / nal_hrd=none / filler=0 / ip_ratio=1.40 / pb_ratio=1.30 / aq=1:1.00
Язык : Hindi
Default : Да
Forced : Нет
Основные цвета : BT.709
Характеристики трансфера : BT.709
Коэффициенты матрицы : BT.709
Аудио #1
Идентификатор : 2
Формат : AC-3
Формат/Информация : Audio Coding 3
Расширение режима : CM (complete main)
Параметр Endianness формата : Big
Идентификатор кодека : A_AC3
Продолжительность : 2 ч. 40 м.
Вид битрейта : Постоянный
Битрейт : 192 Кбит/сек
Каналы : 2 канала
Расположение каналов : Front: L R
Частота : 48,0 КГц
Битовая глубина : 16 бит
Метод сжатия : С потерями
Размер потока : 220 Мбайт (2%)
Заголовок : MVO ( Red Media )
Язык : Russian
Default : Да
Forced : Нет
Аудио #2
Идентификатор : 3
Формат : AC-3
Формат/Информация : Audio Coding 3
Расширение режима : CM (complete main)
Параметр Endianness формата : Big
Идентификатор кодека : A_AC3
Продолжительность : 2 ч. 40 м.
Вид битрейта : Постоянный
Битрейт : 448 Кбит/сек
Каналы : 6 каналов
Расположение каналов : Front: L C R, Side: L R, LFE
Частота : 48,0 КГц
Битовая глубина : 16 бит
Метод сжатия : С потерями
Размер потока : 514 Мбайт (5%)
Заголовок : DVO ( ICG по заказу RG GeneralFilm )
Язык : Russian
Default : Нет
Forced : Нет
Аудио #3
Идентификатор : 4
Формат : AC-3
Формат/Информация : Audio Coding 3
Расширение режима : CM (complete main)
Параметр Endianness формата : Big
Идентификатор кодека : A_AC3
Продолжительность : 2 ч. 40 м.
Вид битрейта : Постоянный
Битрейт : 640 Кбит/сек
Каналы : 6 каналов
Расположение каналов : Front: L C R, Side: L R, LFE
Частота : 48,0 КГц
Битовая глубина : 16 бит
Метод сжатия : С потерями
Размер потока : 735 Мбайт (7%)
Язык : Hindi
Default : Нет
Forced : Нет
Текст
Идентификатор : 5
Формат : UTF-8
Идентификатор кодека : S_TEXT/UTF8
Идентификатор кодека/Информация : UTF-8 Plain Text
Заголовок : на тексты песен
Язык : Russian
Default : Да
Forced : Да
Меню
00:00:00.000 : en:00:00:00.000
00:02:58.165 : en:00:02:58.165
00:04:12.790 : en:00:04:12.790
00:08:28.332 : en:00:08:28.332
00:12:39.540 : en:00:12:39.540
00:18:42.500 : en:00:18:42.500
00:30:05.625 : en:00:30:05.625
00:36:39.125 : en:00:36:39.125
00:39:58.625 : en:00:39:58.625
00:49:01.375 : en:00:49:01.375
00:52:35.083 : en:00:52:35.083
01:02:07.083 : en:01:02:07.083
01:06:37.500 : en:01:06:37.500
01:14:24.250 : en:01:14:24.250
01:22:05.500 : en:01:22:05.500
01:24:46.582 : en:01:24:46.582
01:27:03.541 : en:01:27:03.541
01:31:02.291 : en:01:31:02.291
01:40:24.916 : en:01:40:24.916
01:51:58.207 : en:01:51:58.207
01:55:03.957 : en:01:55:03.957
02:08:45.041 : en:02:08:45.041
02:12:35.541 : en:02:12:35.541
02:16:17.957 : en:02:16:17.957
02:20:43.875 : en:02:20:43.875
02:27:02.208 : en:02:27:02.208
02:33:28.665 : en:02:33:28.665
-

Скриншоты


[Профиль] [ЛС]
Кто просматривает тему:

Показать сообщения:    

Текущее время: Сегодня 22:37

Часовой пояс: GMT



Вы не можете начинать темы
Вы не можете отвечать на сообщения
Вы не можете редактировать свои сообщения
Вы не можете удалять свои сообщения
Вы не можете голосовать в опросах
Вы не можете прикреплять файлы к сообщениям
Вы не можете скачивать файлы