Эскорт / The Escort (Уилл Слокомб / Will Slocombe) [2015, США, комедия, WEB-DLRip] MVO

 
Автор Сообщение

TorrentFilm ®

Пол:

Стаж: 2 года

Сообщений: 7741



Награды: Нет

Торрент-статистика

Создавать темы 31-Окт-2015 00:08

[Цитировать]

Эскорт / The EscortСтрана: США
Жанр: комедия
Год выпуска: 2015
Продолжительность: 01:27:36
Перевод: Профессиональный (многоголосый закадровый) Кинопоказ-Режиссер: Уилл Слокомб / Will Slocombe-В ролях: Майкл Донегер, Линдси Фонсека, Томми Дьюи, Рейчел Решефф, Брюс Кемпбелл
--Молодой, амбициозный (и сексуально озабоченный) журналист пытается устроиться на работу в пафосный журнал. Для этого ему надо написать сенсационную статью, которая понравится редактору и привлечет внимание читателей. Помня золотое правило "пиши о том, что знаешь лучше всего", он решает подготовить материал о мире элитных эскорт-услуг. Осталось дело за малым: найти проститутку, которая согласится дать ему интервью.-
-
Сэмпл: http://sendfile.su/1168555
Качество видео: WEB-DLRip
Исходник: WEB-DLRip 720p
Формат видео: AVI
Видео: XviD (1.2.2) 1050kbps 704x384 23.976fps
Аудио: MP3 128kbps 2ch 16bit 48000khz

MediaInfo

MediaInfoLib - v0.7.62
General
Complete name : F:\Мои раздачи 2\Эскорт (The Escort). 2015г. WEB-DLRip. - kontarik81.avi
Format : AVI
Format/Info : Audio Video Interleave
File size : 744 MiB
Duration : 1h 27mn
Overall bit rate : 1 188 Kbps
Writing application : VirtualDubMod 1.5.10.3 | www.virtualdub-fr.org || (build 2550/release)
Writing library : VirtualDubMod build 2550/release
Video
ID : 0
Format : MPEG-4 Visual
Format profile : Advanced Simple@L5
Format settings, BVOP : 1
Format settings, QPel : No
Format settings, GMC : No warppoints
Format settings, Matrix : Default (H.263)
Codec ID : XVID
Codec ID/Hint : XviD
Duration : 1h 27mn
Bit rate : 1 050 Kbps
Width : 704 pixels
Height : 384 pixels
Display aspect ratio : 1.85:1
Frame rate : 23.976 fps
Color space : YUV
Chroma subsampling : 4:2:0
Bit depth : 8 bits
Scan type : Progressive
Compression mode : Lossy
Bits/(Pixel*Frame) : 0.162
Stream size : 658 MiB (88%)
Writing library : XviD 1.2.1 (UTC 2008-12-04)
Audio
ID : 1
Format : MPEG Audio
Format version : Version 1
Format profile : Layer 3
Mode : Joint stereo
Codec ID : 55
Codec ID/Hint : MP3
Duration : 1h 27mn
Bit rate mode : Constant
Bit rate : 128 Kbps
Channel(s) : 2 channels
Sampling rate : 48.0 KHz
Compression mode : Lossy
Stream size : 80.2 MiB (11%)
Alignment : Aligned on interleaves
Interleave, duration : 42 ms (1.00 video frame)
Interleave, preload duration : 504 ms
Writing library : LAME3.99r
Encoding settings : -m j -V 4 -q 2 -lowpass 17 -b 128

Скриншот c названием фильма

Скриншоты

[Профиль] [ЛС]
Показать сообщения:    

Текущее время: Сегодня 02:14

Часовой пояс: GMT



Вы не можете начинать темы
Вы не можете отвечать на сообщения
Вы не можете редактировать свои сообщения
Вы не можете удалять свои сообщения
Вы не можете голосовать в опросах
Вы не можете прикреплять файлы к сообщениям
Вы не можете скачивать файлы