Эскорт / The Escort (2015) WEB-DL 720p | P

 
Автор Сообщение

достали все ®

Пол:

Стаж: 1 год 8 месяцев

Сообщений: 6558



Награды: 12 (Подробнее)

Mega Releaser 3 (Количество: 1) Mega Seeder 1 (Количество: 1) Top Releaser 4 (Количество: 1)
Торрент-статистика

Создавать темы 27-Окт-2015 04:04

[Цитировать]

Информация о фильме
Название: Эскорт
Оригинальное название: The Escort
Год выхода: 2015
Жанр: мелодрама, драма, комедия
Режиссер: Уилл Слокомб
В ролях: Линдси Фонсека, Майкл Донджер, Томми Дьюи, Брюс Кэмпбелл, Рэйчел Решефф, Румер Уиллис, Соня Уолгер, Стивен Огг, Дэн Баккедаль, Анна Конкл
О фильме: Отчаянно нуждающийся в хорошей истории сексуально одержимый журналист погружается в мир эскорт-услуг высокого класса.

Выпущено: США / Cloverhill Pictures, Perspective Productions, Skyhook Productions
Продолжительность: 01:27:36
Озвучивание: Профессиональное (многоголосое) [Официальный звук]
Файл
Формат: MKV
Качество: WEB-DL 720p
Видео: MPEG-4 AVC, 4047 kb/s, 1280x692
Аудио: Russian: AC3, 192 kb/s (2 ch) / English: AC3, 384 kb/s (6 ch)

MI

Format : Matroska
Format version : Version 4 / Version 2
File size : 2.89 GiB
Duration : 1h 27mn
Overall bit rate : 4 717 Kbps
Encoded date : UTC 2015-10-26 18:32:12
Writing application : mkvmerge v8.2.0 ('World of Adventure') 64bit
Writing library : libebml v1.3.1 + libmatroska v1.4.2
DURATION : 01:27:36.832000000
NUMBER_OF_FRAMES : 164276
NUMBER_OF_BYTES : 126163968
_STATISTICS_WRITING_APP : mkvmerge v8.2.0 ('World of Adventure') 64bit
_STATISTICS_WRITING_DATE_UTC : 2015-10-26 18:32:12
_STATISTICS_TAGS : BPS DURATION NUMBER_OF_FRAMES NUMBER_OF_BYTES
Video
ID : 1
Format : AVC
Format/Info : Advanced Video Codec
Format profile : High@L3.1
Format settings, CABAC : No
Format settings, ReFrames : 2 frames
Codec ID : V_MPEG4/ISO/AVC
Duration : 1h 27mn
Bit rate : 4 047 Kbps
Width : 1 280 pixels
Height : 692 pixels
Display aspect ratio : 1.85:1
Frame rate mode : Constant
Frame rate : 23.976 fps
Color space : YUV
Chroma subsampling : 4:2:0
Bit depth : 8 bits
Scan type : Progressive
Bits/(Pixel*Frame) : 0.191
Stream size : 2.48 GiB (86%)
Language : English
Default : Yes
Forced : No
Color range : Limited
Color primaries : BT.709
Transfer characteristics : BT.709
Matrix coefficients : BT.709
Audio #1
ID : 2
Format : AC-3
Format/Info : Audio Coding 3
Mode extension : CM (complete main)
Format settings, Endianness : Big
Codec ID : A_AC3
Duration : 1h 27mn
Bit rate mode : Constant
Bit rate : 192 Kbps
Channel(s) : 2 channels
Channel positions : Front: L R
Sampling rate : 48.0 KHz
Bit depth : 16 bits
Compression mode : Lossy
Stream size : 120 MiB (4%)
Language : Russian
Default : Yes
Forced : Yes
Audio #2
ID : 3
Format : AC-3
Format/Info : Audio Coding 3
Mode extension : CM (complete main)
Format settings, Endianness : Big
Codec ID : A_AC3
Duration : 1h 27mn
Bit rate mode : Constant
Bit rate : 384 Kbps
Channel(s) : 6 channels
Channel positions : Front: L C R, Side: L R, LFE
Sampling rate : 48.0 KHz
Bit depth : 16 bits
Compression mode : Lossy
Stream size : 241 MiB (8%)
Title : Original
Language : English
Default : No
Forced : No
Menu
00:00:00.000 : en:Chapter One
00:09:07.000 : en:Chapter Two
00:19:01.000 : en:Chapter Three
00:31:09.000 : en:Chapter Four
00:43:36.000 : en:Chapter Five
00:54:09.000 : en:Chapter Six
01:01:02.000 : en:Chapter Seven
01:10:15.000 : en:Chapter Eight
01:17:33.000 : en:Chapter Nine

Скриншоты



[Профиль] [ЛС]
Показать сообщения:    

Текущее время: Сегодня 01:08

Часовой пояс: GMT



Вы не можете начинать темы
Вы не можете отвечать на сообщения
Вы не можете редактировать свои сообщения
Вы не можете удалять свои сообщения
Вы не можете голосовать в опросах
Вы не можете прикреплять файлы к сообщениям
Вы не можете скачивать файлы