Эпоха невинности / The Age of Innocence (Мартин Скорсезе / Martin Scorsese) [1993, США, драма, мелодрама, BDRemux 1080p] MVO (Видеосервис) + 2x AVO (Гаврилов, Володарский) + Sub Eng + Original Eng

 
Автор Сообщение

reversefile ®

Пол:

Стаж: 4 года 5 месяцев

Сообщений: 842

Откуда: ReverseFile.org



Награды: Нет

Торрент-статистика

Создавать темы 11-Авг-2014 10:40

[Цитировать]

Эпоха невинности / The Age of Innocence
Страна: США
Жанр: драма, мелодрама
Год выпуска: 1993
Продолжительность: 02:18:25
Перевод: Профессиональный (многоголосый закадровый) Видеосервис
Перевод: Авторский (одноголосый закадровый) Андрей Гаврилов
Перевод: Авторский (одноголосый закадровый) Леонид Володарский
Cубтитры: English, English SDH
Оригинальная аудиодорожка: английский
Режиссер: Мартин Скорсезе / Martin Scorsese
В ролях: Дэниэл Дэй-Льюис, Мишель Пфайффер, Вайнона Райдер, Линда Фэй Фаркас, Майкл Риис Дэвис, Терри Кук, Джон Гаррисон, Ричард Э. Грант, Алек МакКоуэн, Джеральдин Чаплин
Описание: Романтическая история показывает великолепие и лицемерие высшего света конца 80-х годов 19-го века. Ньюлэнд Арчер — преуспевающий адвокат, в глубине души желающий настоящей страсти в своем обыденном существовании. Помолвка с милой и благовоспитанной Мэй Уэлланд обещает ему благодушную и спокойную жизнь.
Но когда кузина Мэй возвращается в Нью-Йорк после публичного скандала, Ньюлэнд попадает в сети ее тайной власти и невыразимой красоты. Теперь он вынужден сделать выбор между миром, который он знает, и миром, о котором он мог только мечтать.
Доп. информация: За исходник спасибо hgking @ HDBits. Многоголоска Видеосервиса с лицензионного издания. За дорогу с Гавриловым спасибо darkman70, с Володарским - alenavova.
Сэмпл: https://yadi.sk/i/rj3rewvcZGp9W
Тип релиза: BDRemux 1080p
Контейнер: MKV
Видео: MPEG-4 AVC Video / 27890 kbps / 1080p / 23.976 fps / 16:9 / High Profile 4.1
Аудио: Russian / Dolby Digital Audio / 5.1 / 48 kHz / 448 kbps (Многоголосый закадровый - Видеосервис)
Аудио: Russian / Dolby Digital Audio / 5.1 / 48 kHz / 448 kbps (Одноголосый закадровый - Андрей Гаврилов)
Аудио: Russian / Dolby Digital Audio / 2.0 / 48 kHz / 192 kbps (Одноголосый закадровый - Леонид Володарский)
Аудио: English / DTS-HD Master Audio / 5.1 / 48 kHz / 3755 kbps / 24-bit (DTS Core: 5.1 / 48 kHz / 1509 kbps / 24-bit)

MediaInfo

Общее
Уникальный идентификатор : 253219919958983550526157136762575471264 (0xBE8061F4761CA6DB976CEFF6F4AF42A0)
Формат : Matroska
Версия формата : Version 4 / Version 2
Размер файла : 31,7 Гбайт
Продолжительность : 2 ч. 18 м.
Режим общего битрейта : Переменный
Общий поток : 32,7 Мбит/сек
Название фильма : The Age of Innocence (1993)
Дата кодирования : UTC 2014-08-08 07:44:15
Программа кодирования : mkvmerge v6.9.1 ('Blue Panther') 64bit built on Apr 18 2014 18:23:38
Библиотека кодирования : libebml v1.3.0 + libmatroska v1.4.1
Видео
Идентификатор : 1
Формат : AVC
Формат/Информация : Advanced Video Codec
Профиль формата : High@L4.1
Параметр CABAC формата : Да
Параметр ReFrames формата : 2 кадра
Идентификатор кодека : V_MPEG4/ISO/AVC
Продолжительность : 2 ч. 18 м.
Вид битрейта : Переменный
Ширина : 1920 пикселей
Высота : 1080 пикселей
Соотношение сторон : 16:9
Режим частоты кадров : Постоянный
Частота кадров : 23,976 кадра/сек
Цветовое пространство : YUV
Субдискретизация насыщенности : 4:2:0
Битовая глубина : 8 бит
Тип развёртки : Прогрессивная
Заголовок : MPEG-4 AVC Video / 27890 kbps / 1080p / 23.976 fps / 16:9 / High Profile 4.1
Язык : English
Default : Да
Forced : Нет
Аудио #1
Идентификатор : 2
Формат : AC-3
Формат/Информация : Audio Coding 3
Расширение режима : CM (complete main)
Параметр Endianness формата : Big
Идентификатор кодека : A_AC3
Продолжительность : 2 ч. 18 м.
Вид битрейта : Постоянный
Битрейт : 448 Кбит/сек
Каналы : 6 каналов
Расположение каналов : Front: L C R, Side: L R, LFE
Частота : 48,0 КГц
Битовая глубина : 16 бит
Метод сжатия : С потерями
Размер потока : 444 Мбайт (1%)
Заголовок : MVO - Видеосервис
Язык : Russian
Default : Да
Forced : Нет
Аудио #2
Идентификатор : 3
Формат : AC-3
Формат/Информация : Audio Coding 3
Расширение режима : CM (complete main)
Параметр Endianness формата : Big
Идентификатор кодека : A_AC3
Продолжительность : 2 ч. 18 м.
Вид битрейта : Постоянный
Битрейт : 448 Кбит/сек
Каналы : 6 каналов
Расположение каналов : Front: L C R, Side: L R, LFE
Частота : 48,0 КГц
Битовая глубина : 16 бит
Метод сжатия : С потерями
Размер потока : 444 Мбайт (1%)
Заголовок : AVO - Гаврилов
Язык : Russian
Default : Нет
Forced : Нет
Аудио #3
Идентификатор : 4
Формат : AC-3
Формат/Информация : Audio Coding 3
Расширение режима : CM (complete main)
Параметр Endianness формата : Big
Идентификатор кодека : A_AC3
Продолжительность : 2 ч. 18 м.
Вид битрейта : Постоянный
Битрейт : 192 Кбит/сек
Каналы : 2 канала
Расположение каналов : Front: L R
Частота : 48,0 КГц
Битовая глубина : 16 бит
Метод сжатия : С потерями
Размер потока : 190 Мбайт (1%)
Заголовок : AVO - Володарский
Язык : Russian
Default : Нет
Forced : Нет
Аудио #4
Идентификатор : 5
Формат : DTS
Формат/Информация : Digital Theater Systems
Профиль формата : MA / Core
Режим : 16
Параметр Endianness формата : Big
Идентификатор кодека : A_DTS
Продолжительность : 2 ч. 18 м.
Вид битрейта : Переменный
Битрейт : Неизвестно / 1509 Кбит/сек
Каналы : 6 каналов
Расположение каналов : Front: L C R, Side: L R, LFE
Частота : 48,0 КГц
Битовая глубина : 24 бит
Метод сжатия : Без потерь / Lossy
Язык : English
Default : Нет
Forced : Нет
Текст #1
Идентификатор : 6
Формат : UTF-8
Идентификатор кодека : S_TEXT/UTF8
Идентификатор кодека/Информация : UTF-8 Plain Text
Язык : English
Default : Нет
Forced : Нет
Текст #2
Идентификатор : 7
Формат : UTF-8
Идентификатор кодека : S_TEXT/UTF8
Идентификатор кодека/Информация : UTF-8 Plain Text
Заголовок : SDH
Язык : English
Default : Нет
Forced : Нет
Меню
00:00:00.000 : en:00:00:00.000
00:09:56.095 : en:00:09:56.095
00:17:44.146 : en:00:17:44.146
00:24:49.488 : en:00:24:49.488
00:31:56.414 : en:00:31:56.414
00:39:40.295 : en:00:39:40.295
00:49:30.634 : en:00:49:30.634
00:57:50.926 : en:00:57:50.926
01:08:36.529 : en:01:08:36.529
01:15:29.275 : en:01:15:29.275
01:24:35.195 : en:01:24:35.195
01:32:53.485 : en:01:32:53.485
01:42:20.384 : en:01:42:20.384
01:51:25.220 : en:01:51:25.220
01:57:30.001 : en:01:57:30.001
02:08:57.188 : en:02:08:57.188

Скриншоты

[Профиль] [ЛС]
Кто просматривает тему:

Форум Тема Автор Размер
Зарубежные Tрансформеры: Эпоха истребления в 3Д / Transformers: Age Of Extinction 3D (Майкл Бэй / Michael Bay) [2014, Фантастика, боевик, приключения, BDremux, 1080p] BD3D TorrentFilm 38.07 GB
Разная литература Александр Никишин - Тайны русской водки. Эпоха Иосифа Сталина [История культуры России, 2013, FB2, RTF] Garik014 9 MB
Фильмы (HD Rips | 720p, 1080p) Кундо: Эпоха угрозы / Kundo: Age of the Rampan (2014) BDRip 720p | L2 sergej644 4.78 GB
Разная литература Никишин Александр - Тайны русской водки. Эпоха Иосифа Сталина (2016) FB2 достали все 1 MB
Зарубежные Трансформеры: Эпоха истребления / Transformers: Age of Extinction (2014) BDRip 1080p от Ash61 | 3D-Video | halfOU | Лицензия sergej644 27.08 GB
Зарубежные Трансформеры: Эпоха истребления / Transformers: Age Of Extinction (2014) BDRip 1080p от HDClub | 3D-Video | HOU | IMAX | D | Лицензия sergej644 18.83 GB
Фильмы (HD Rips | 720p, 1080p) Трансформеры: Эпоха истребления / Transformers: Age of Extinction (2014) BDRip 720p | iTunes Russia sergej644 9.25 GB
Зарубежные Трансформеры: Эпоха истребления / Transformers: Age of Extinction (2014) BDRip [1080p] 3D [Вертикальная анаморфная стереопара] sergej644 21.64 GB
Показать сообщения:    

Текущее время: Сегодня 18:42

Часовой пояс: GMT



Вы не можете начинать темы
Вы не можете отвечать на сообщения
Вы не можете редактировать свои сообщения
Вы не можете удалять свои сообщения
Вы не можете голосовать в опросах
Вы не можете прикреплять файлы к сообщениям
Вы не можете скачивать файлы