Энни / Annie (2014) BDRip 1080p | Лицензия

 
Автор Сообщение

sergej644 ®

Пол:

Стаж: 4 года 11 месяцев

Сообщений: 6046

Откуда: Soviet Union



Награды: Нет

Торрент-статистика

Создавать темы 26-Июн-2015 22:55

[Цитировать]

Информация о фильме
Название: Энни
Оригинальное название: Annie
Год выпуска: 2014
Жанр: Мюзикл, драма, комедия, семейный
Выпущено: США, Marcy Media, Olive Bridge Entertainment, Sony Pictures Entertainment
Режиссер: Уилл Глак
В ролях: Куавенжане Уоллис, Джейми Фокс, Роуз Бирн, Кэмерон Диаз, Бобби Каннавейл, Адевале Акиннуойе-Агбадже, Дэвид Зайас, Зои Маргарет Коллетти, Николетт Пьерини, Иден Дункан-Смит
О фильме: Очаровательная и остроумная Энни живет в неприглядном приюте для сирот под присмотром зловредной воспитательницы. Но однажды, после встречи с богатым и успешным бизнесменом, ее унылая жизнь переворачивается…
Качество: BDRip (1080p)
Видео: MPEG-4 AVC, 10600 Кбит/с, 1920x802
Аудио: Русский, украинский (AC3, 6 ch, 640 Кбит/с), английский (DTS, 6 ch, 1510 Кбит/с), (AC3, 2 ch, 192 Кбит/с)
Размер: 11.45 ГБ
Продолжительность: 01:58:23
Перевод: Дублированный [Лицензия]
Субтитры: Русские, английские

MI

бщее
Уникальный идентификатор : 190752005782026126828425956115792224274 (0x8F817FFF434F0C658E486C4BDFE36012)
Полное имя : C:VideoAnnie.2014.1080p.BluRay.Rus.Ukr.2xEng.HDCLUB.mkv
Формат : Matroska
Версия формата : Version 2
Размер файла : 11,4 Гбайт
Продолжительность : 1 ч. 58 м.
Общий поток : 13,8 Мбит/сек
Название фильма : Annie (2014) - Release for HDCLUB
Дата кодирования : UTC 2015-06-25 18:41:03
Программа кодирования : mkvmerge v3.4.0 ('Rapunzel') built on May 15 2010 09:38:20
Библиотека кодирования : libebml v0.8.0 + libmatroska v0.9.0
Видео
Идентификатор : 1
Формат : AVC
Формат/Информация : Advanced Video Codec
Профиль формата : High@L4.1
Параметр CABAC формата : Да
Параметр ReFrames формата : 5 кадров
Идентификатор кодека : V_MPEG4/ISO/AVC
Продолжительность : 1 ч. 58 м.
Битрейт : 10,6 Мбит/сек
Ширина : 1920 пикселей
Высота : 802 пикселя
Соотношение сторон : 2,40:1
Режим частоты кадров : Постоянный
Частота кадров : 23,976 кадра/сек
Цветовое пространство : YUV
Субдискретизация насыщенности : 4:2:0
Битовая глубина : 8 бит
Тип развёртки : Прогрессивная
Бит/(Пиксели*Кадры) : 0.287
Размер потока : 8,75 Гбайт (76%)
Заголовок : Annie (2014) - Release for HDCLUB
Библиотека кодирования : x264 core 142 r2491 24e4fed
Настройки программы : cabac=1 / ref=5 / deblock=1:-3:-3 / analyse=0x3:0x133 / me=tesa / subme=11 / psy=1 / psy_rd=1.05:0.00 / mixed_ref=1 / me_range=24 / chroma_me=1 / trellis=2 / 8x8dct=1 / cqm=0 / deadzone=21,11 / fast_pskip=0 / chroma_qp_offset=-2 / threads=12 / lookahead_threads=3 / sliced_threads=0 / nr=0 / decimate=1 / interlaced=0 / bluray_compat=0 / constrained_intra=0 / bframes=11 / b_pyramid=2 / b_adapt=2 / b_bias=0 / direct=3 / weightb=1 / open_gop=0 / weightp=2 / keyint=250 / keyint_min=23 / scenecut=40 / intra_refresh=0 / rc=crf / mbtree=0 / crf=16.0 / qcomp=0.70 / qpmin=0 / qpmax=69 / qpstep=4 / ip_ratio=1.40 / pb_ratio=1.30 / aq=1:0.70
Язык : English
Default : Да
Forced : Нет
Цветовой диапазон : Limited
Коэффициенты матрицы : BT.709
Аудио #1
Идентификатор : 2
Формат : AC-3
Формат/Информация : Audio Coding 3
Расширение режима : CM (complete main)
Параметр Endianness формата : Big
Идентификатор кодека : A_AC3
Продолжительность : 1 ч. 58 м.
Вид битрейта : Постоянный
Битрейт : 640 Кбит/сек
Каналы : 6 каналов
Расположение каналов : Front: L C R, Side: L R, LFE
Частота : 48,0 КГц
Метод сжатия : С потерями
Размер потока : 542 Мбайт (5%)
Заголовок : AC3 5.1 @ 640 kbps - DUB, Blu-ray CEE
Язык : Russian
Default : Да
Forced : Нет
Аудио #2
Идентификатор : 3
Формат : AC-3
Формат/Информация : Audio Coding 3
Расширение режима : CM (complete main)
Параметр Endianness формата : Big
Идентификатор кодека : A_AC3
Продолжительность : 1 ч. 58 м.
Вид битрейта : Постоянный
Битрейт : 640 Кбит/сек
Каналы : 6 каналов
Расположение каналов : Front: L C R, Side: L R, LFE
Частота : 48,0 КГц
Метод сжатия : С потерями
Размер потока : 542 Мбайт (5%)
Заголовок : AC3 5.1 @ 640 kbps - DUB, Blu-ray CEE
Язык : Ukrainian
Default : Нет
Forced : Нет
Аудио #3
Идентификатор : 4
Формат : DTS
Формат/Информация : Digital Theater Systems
Режим : 16
Параметр Endianness формата : Big
Идентификатор кодека : A_DTS
Продолжительность : 1 ч. 58 м.
Вид битрейта : Постоянный
Битрейт : 1509 Кбит/сек
Каналы : 6 каналов
Расположение каналов : Front: L C R, Side: L R, LFE
Частота : 48,0 КГц
Битовая глубина : 24 бит
Метод сжатия : С потерями
Задержка видео : 11 мс.
Размер потока : 1,25 Гбайт (11%)
Заголовок : DTS 5.1 @ 1536 kbps
Язык : English
Default : Нет
Forced : Нет
Аудио #4
Идентификатор : 5
Формат : AC-3
Формат/Информация : Audio Coding 3
Профиль формата : Dolby Digital
Расширение режима : CM (complete main)
Параметр Endianness формата : Big
Идентификатор кодека : A_AC3
Продолжительность : 1 ч. 58 м.
Вид битрейта : Постоянный
Битрейт : 192 Кбит/сек
Каналы : 2 канала
Расположение каналов : Front: L R
Частота : 48,0 КГц
Метод сжатия : С потерями
Размер потока : 163 Мбайт (1%)
Заголовок : AC3 2.0 @ 192 kbps - Commentary with Director Will Gluck
Язык : English
Default : Нет
Forced : Нет
Текст #1
Идентификатор : 6
Формат : UTF-8
Идентификатор кодека : S_TEXT/UTF8
Идентификатор кодека/Информация : UTF-8 Plain Text
Заголовок : Forced, iTunes
Язык : Russian
Default : Да
Forced : Нет
Текст #2
Идентификатор : 7
Формат : UTF-8
Идентификатор кодека : S_TEXT/UTF8
Идентификатор кодека/Информация : UTF-8 Plain Text
Заголовок : iTunes
Язык : Russian
Default : Нет
Forced : Нет
Текст #3
Идентификатор : 8
Формат : UTF-8
Идентификатор кодека : S_TEXT/UTF8
Идентификатор кодека/Информация : UTF-8 Plain Text
Заголовок : iTunes
Язык : Ukrainian
Default : Нет
Forced : Нет
Текст #4
Идентификатор : 9
Формат : UTF-8
Идентификатор кодека : S_TEXT/UTF8
Идентификатор кодека/Информация : UTF-8 Plain Text
Заголовок : iTunes
Язык : English
Default : Нет
Forced : Нет
Меню
00:00:00.000 : en:00:00:00.000
00:00:37.412 : en:00:00:37.412
00:00:54.972 : en:00:00:54.972
00:01:18.704 : en:00:01:18.704
00:01:34.177 : en:00:01:34.177
00:01:57.826 : en:00:01:57.826
00:02:22.476 : en:00:02:22.476
00:02:56.134 : en:00:02:56.134
00:03:04.810 : en:00:03:04.810
00:03:11.274 : en:00:03:11.274
00:03:18.532 : en:00:03:18.532
00:03:30.669 : en:00:03:30.669
00:03:43.306 : en:00:03:43.306
00:04:00.490 : en:00:04:00.490
00:04:06.955 : en:00:04:06.955
00:04:18.800 : en:00:04:18.800
00:04:33.064 : en:00:04:33.064
00:04:44.284 : en:00:04:44.284
00:05:37.337 : en:00:05:37.337
00:05:51.810 : en:00:05:51.810
00:06:01.736 : en:00:06:01.736
00:06:39.149 : en:00:06:39.149
00:06:51.328 : en:00:06:51.328
00:07:12.557 : en:00:07:12.557
00:07:32.869 : en:00:07:32.869
00:07:41.461 : en:00:07:41.461
00:08:07.320 : en:00:08:07.320
00:08:25.672 : en:00:08:25.672
00:08:49.988 : en:00:08:49.988
00:09:10.800 : en:00:09:10.800
00:09:38.369 : en:00:09:38.369
00:11:08.126 : en:00:11:08.126
00:12:29.499 : en:00:12:29.499
00:12:46.766 : en:00:12:46.766
00:13:30.309 : en:00:13:30.309
00:14:52.767 : en:00:14:52.767
00:15:15.873 : en:00:15:15.873
00:16:53.638 : en:00:16:53.638
00:17:33.511 : en:00:17:33.511
00:18:12.842 : en:00:18:12.842
00:18:27.690 : en:00:18:27.690
00:18:52.340 : en:00:18:52.340
00:19:05.227 : en:00:19:05.227
00:19:16.655 : en:00:19:16.655
00:20:01.158 : en:00:20:01.158
00:20:20.386 : en:00:20:20.386
00:21:00.134 : en:00:21:00.134
00:21:46.597 : en:00:21:46.597
00:22:09.036 : en:00:22:09.036
00:22:44.613 : en:00:22:44.613
00:24:05.110 : en:00:24:05.110
00:24:59.123 : en:00:24:59.123
00:25:46.837 : en:00:25:46.837
00:26:36.136 : en:00:26:36.136
00:26:47.689 : en:00:26:47.689
00:27:53.755 : en:00:27:53.755
00:28:19.907 : en:00:28:19.907
00:28:46.016 : en:00:28:46.016
00:29:55.002 : en:00:29:55.002
00:30:36.043 : en:00:30:36.043
00:30:53.351 : en:00:30:53.351
00:32:15.851 : en:00:32:15.851
00:33:38.391 : en:00:33:38.391
00:35:06.896 : en:00:35:06.896
00:36:58.258 : en:00:36:58.258
00:37:18.319 : en:00:37:18.319
00:37:54.522 : en:00:37:54.522
00:38:38.942 : en:00:38:38.942
00:39:20.775 : en:00:39:20.775
00:40:04.902 : en:00:40:04.902
00:41:24.232 : en:00:41:24.232
00:43:24.936 : en:00:43:24.936
00:45:22.929 : en:00:45:22.929
00:46:25.950 : en:00:46:25.950
00:47:05.823 : en:00:47:05.823
00:48:51.053 : en:00:48:51.053
00:51:20.703 : en:00:51:20.703
00:51:30.254 : en:00:51:30.254
00:52:15.924 : en:00:52:15.924
00:52:38.322 : en:00:52:38.322
00:53:40.926 : en:00:53:40.926
00:55:01.173 : en:00:55:01.173
00:56:01.358 : en:00:56:01.358
00:56:48.405 : en:00:56:48.405
00:57:24.191 : en:00:57:24.191
01:01:36.985 : en:01:01:36.985
01:02:38.505 : en:01:02:38.505
01:03:16.459 : en:01:03:16.459
01:03:54.789 : en:01:03:54.789
01:06:48.213 : en:01:06:48.213
01:06:59.390 : en:01:06:59.390
01:07:26.834 : en:01:07:26.834
01:08:34.902 : en:01:08:34.902
01:08:48.916 : en:01:08:48.916
01:10:07.745 : en:01:10:07.745
01:12:52.952 : en:01:12:52.952
01:13:30.489 : en:01:13:30.489
01:16:48.062 : en:01:16:48.062
01:18:42.092 : en:01:18:42.092
01:19:24.218 : en:01:19:24.218
01:20:04.591 : en:01:20:04.591
01:22:43.375 : en:01:22:43.375
01:24:27.020 : en:01:24:27.020
01:25:49.853 : en:01:25:49.853
01:30:40.810 : en:01:30:40.810
01:32:22.746 : en:01:32:22.746
01:34:26.160 : en:01:34:26.160
01:34:45.346 : en:01:34:45.346
01:37:50.239 : en:01:37:50.239
01:41:11.649 : en:01:41:11.649
01:42:51.916 : en:01:42:51.916
01:45:47.591 : en:01:45:47.591
01:48:40.889 : en:01:48:40.889
01:50:05.390 : en:01:50:05.390
01:50:22.491 : en:01:50:22.491
01:51:32.519 : en:01:51:32.519
01:52:19.775 : en:01:52:19.775
01:52:29.618 : en:01:52:29.618

Скриншоты




Релиз от:
[Профиль] [ЛС]
Показать сообщения:    

Текущее время: Сегодня 11:07

Часовой пояс: GMT



Вы не можете начинать темы
Вы не можете отвечать на сообщения
Вы не можете редактировать свои сообщения
Вы не можете удалять свои сообщения
Вы не можете голосовать в опросах
Вы не можете прикреплять файлы к сообщениям
Вы не можете скачивать файлы