Энни / Annie (2014) BDRemux [H.264/1080p]

 
Автор Сообщение

достали все ®

Пол:

Стаж: 1 год 8 месяцев

Сообщений: 6545



Награды: 12 (Подробнее)

Top Releaser 4 (Количество: 1) Top Releaser 3 (Количество: 1) Mega Seeder 1 (Количество: 1)
Торрент-статистика

Создавать темы 27-Апр-2015 09:00

[Цитировать]

-Энни / Annie (2014) BDRemux-«Принцессами не рождаются»- Производство: США / Marcy Media
Жанр: Мьюзикл, Драма, Комедия, Семейный
Режиссер: Уилл Глак
Актеры: Куавенжане Уоллис, Джейми Фокс, Роуз Бирн, Кэмерон Диаз, Бобби Каннавале, Адевале Акинойе-Агбаже, Дэвид Зайас, Зои Маргарет Коллетти, Николетт Пьерини, Иден Дункан-Смит
Описание:
Очаровательная и остроумная Энни живет в неприглядном приюте для сирот под присмотром зловредной воспитательницы. Но однажды, после встречи с богатым и успешным бизнесменом, ее унылая жизнь переворачивается…

Дата мировой премьеры: 7 декабря 2014
Дата премьеры в РФ: 19 марта 2015, «WDSSPR»
Дата выхода DVD/Blu-ray релиза: 18 июня 2015, «CP Дистрибуция»
Продолжительность: 01:58:23
Качество видео: BDRemux
Перевод: Дублированный (iTunes)
Субтитры: Вшитые отключаемые
Язык субтитров: Английский
Видео: AVC/H.264, ~22879 kbps, 1920 x 1080, 23,976 fps
Аудио 1: Русский, AC3 5.1, 384 kbps, 48 kHz (DUB, iTunes)
Аудио 2: Английский, DTS-HD MA 5.1, 2276 kbps, 48 kHz, 16 bit (Original)
Аудио 3: Английский, AC3 2.0, 192 kbps, 48 kHz (Commentary)
Сэмпл: Скачать

Mediainfo:

Общее
Уникальный идентификатор                 : 214868071797989432774942250009420341024 (0xA1A615D9F24CD45B9C1BBD5CF8739F20)
Полное имя                               : D:\Films\Annie.2014.1080p.BDRemux.mkv
Формат                                   : Matroska
Версия формата                           : Version 2
Размер файла                             : 21,3 Гбайт
Продолжительность                        : 1 ч. 58 м.
Режим общего битрейта                    : Переменный
Общий поток                              : 25,7 Мбит/сек
Название фильма                          : Annie (2014)
Дата кодирования                         : UTC 2015-04-24 13:00:23
Программа кодирования                    : mkvmerge v5.2.0 ('I can't explain') built on Dec 18 2011 18:12:03
Библиотека кодирования                   : libebml v1.2.3 + libmatroska v1.3.0
Видео
Идентификатор                            : 1
Формат                                   : AVC
Формат/Информация                        : Advanced Video Codec
Профиль формата                          : [url=mailto:High@L4.1]High@L4.1[/url]
Параметр CABAC формата                   : Да
Параметр ReFrames формата                : 2 кадра
Параметр GOP формата                     : M=1, N=10
Идентификатор кодека                     : V_MPEG4/ISO/AVC
Продолжительность                        : 1 ч. 58 м.
Вид битрейта                             : Переменный
Ширина                                   : 1920 пикселей
Высота                                   : 1080 пикселей
Соотношение сторон                       : 16:9
Режим частоты кадров                     : Постоянный
Частота кадров                           : 23,976 кадра/сек
Цветовое пространство                    : YUV
Субдискретизация насыщенности            : 4:2:0
Битовая глубина                          : 8 бит
Тип развёртки                            : Прогрессивная
Язык                                     : English
Default                                  : Да
Forced                                   : Нет
Аудио #1
Идентификатор                            : 2
Формат                                   : AC-3
Формат/Информация                        : Audio Coding 3
Расширение режима                        : CM (complete main)
Параметр Endianness формата              : Big
Идентификатор кодека                     : A_AC3
Продолжительность                        : 1 ч. 58 м.
Вид битрейта                             : Постоянный
Битрейт                                  : 384 Кбит/сек
Каналы                                   : 6 каналов
Расположение каналов                     : Front: L C R, Side: L R, LFE
Частота                                  : 48,0 КГц
Битовая глубина                          : 16 бит
Метод сжатия                             : С потерями
Размер потока                            : 325 Мбайт (1%)
Заголовок                                : DUB, iTunes
Язык                                     : Russian
Default                                  : Да
Forced                                   : Нет
Аудио #2
Идентификатор                            : 3
Формат                                   : DTS
Формат/Информация                        : Digital Theater Systems
Профиль формата                          : MA / Core
Режим                                    : 16
Параметр Endianness формата              : Big
Идентификатор кодека                     : A_DTS
Продолжительность                        : 1 ч. 58 м.
Вид битрейта                             : Переменный
Битрейт                                  : Неизвестно / 1509 Кбит/сек
Каналы                                   : 6 каналов
Расположение каналов                     : Front: L C R, Side: L R, LFE
Частота                                  : 48,0 КГц
Битовая глубина                          : 16 бит
Метод сжатия                             : Без потерь / Lossy
Заголовок                                : Original
Язык                                     : English
Default                                  : Нет
Forced                                   : Нет
Аудио #3
Идентификатор                            : 4
Формат                                   : AC-3
Формат/Информация                        : Audio Coding 3
Профиль формата                          : Dolby Digital
Расширение режима                        : CM (complete main)
Параметр Endianness формата              : Big
Идентификатор кодека                     : A_AC3
Продолжительность                        : 1 ч. 58 м.
Вид битрейта                             : Постоянный
Битрейт                                  : 192 Кбит/сек
Каналы                                   : 2 канала
Расположение каналов                     : Front: L R
Частота                                  : 48,0 КГц
Битовая глубина                          : 16 бит
Метод сжатия                             : С потерями
Размер потока                            : 163 Мбайт (1%)
Заголовок                                : Commentary
Язык                                     : English
Default                                  : Нет
Forced                                   : Нет
Текст #1
Идентификатор                            : 5
Формат                                   : UTF-8
Идентификатор кодека                     : S_TEXT/UTF8
Идентификатор кодека/Информация          : UTF-8 Plain Text
Заголовок                                : SDH
Язык                                     : English
Default                                  : Нет
Forced                                   : Нет
Текст #2
Идентификатор                            : 6
Формат                                   : UTF-8
Идентификатор кодека                     : S_TEXT/UTF8
Идентификатор кодека/Информация          : UTF-8 Plain Text
Язык                                     : English
Default                                  : Нет
Forced                                   : Нет
Меню
00:00:00.000                             : en:Chapter 01
00:12:16.235                             : en:Chapter 02
00:18:20.724                             : en:Chapter 03
00:22:25.135                             : en:Chapter 04
00:28:43.680                             : en:Chapter 05
00:37:24.492                             : en:Chapter 06
00:42:23.582                             : en:Chapter 07
00:49:39.476                             : en:Chapter 08
00:55:20.734                             : en:Chapter 09
01:02:00.049                             : en:Chapter 10
01:07:13.529                             : en:Chapter 11
01:16:46.101                             : en:Chapter 12
01:21:31.094                             : en:Chapter 13
01:27:21.653                             : en:Chapter 14
01:37:46.068                             : en:Chapter 15
01:45:48.258                             : en:Chapter 16

Avdump:

File: D:\Films\Annie.2014.1080p.BDRemux.mkv
Duration: 01:58:24 (7104.13) - WARNING: Differs from video duration! (1.07 sec)
Track #1: video
lang: Unknown (1)
codc: V_MPEG4/ISO/AVC -> H264/AVC (22)
reso: 1920x1080 -> 16:9
fram: 23.976025 fps
rate: 22879 kbps (22879.062500)
dura: 01:58:23 (7103.054199)
size: 18.92 GB (20313902692)
Track #2: audio (DUB, iTunes)
lang: rus -> Russian (15)
codc: A_AC3 -> AC3 (2)
chan: 6 -> 5.1 Surround
samp: 48000 Hz
rate: 384 kbps (384.04)
dura: 01:58:24 (7104.06)
size: 325.23 MB (341032856)
Track #3: audio (Original)
lang: Unknown (1)
codc: A_DTS -> DTS (13)
chan: 6 -> 5.1 Surround
samp: 48000 Hz
rate: 2276 kbps (2275.94)
dura: 01:58:23 (7103.03)
size: 1.88 GB (2020754223)
Track #4: audio (Commentary)
lang: Unknown (1)
codc: A_AC3 -> AC3 (2)
chan: 2 -> Stereo
samp: 48000 Hz
rate: 192 kbps (192.04)
dura: 01:58:23 (7103.04)
size: 162.61 MB (170509173)
Track #5: subtitles (SDH)
lang: Unknown (1)
type: S_TEXT/UTF8 -> SRT (3)
size: 66.58 KB (68180)
Track #6: subtitles
lang: Unknown (1)
type: S_TEXT/UTF8 -> SRT (3)
size: 84.69 KB (86720)
Sizes: (check sanity)
disk: 21.28 GB (22849381000)
trac: 5.28 GB (5666484660) [based on track size]
bitr: 21.28 GB (22846158784) [based on bitrate]
tdif: 16.00 GB (17182896340) 75.20%
bdif: 3.07 MB (3222215) 0.01%
Скриншоты:
[Профиль] [ЛС]
Показать сообщения:    

Текущее время: Сегодня 14:34

Часовой пояс: GMT



Вы не можете начинать темы
Вы не можете отвечать на сообщения
Вы не можете редактировать свои сообщения
Вы не можете удалять свои сообщения
Вы не можете голосовать в опросах
Вы не можете прикреплять файлы к сообщениям
Вы не можете скачивать файлы