Энергия Великой Победы (Александр Евсюков) [2015, Документальный, HDTV 720p]

 
Автор Сообщение

TorrentFilm ®

Пол:

Стаж: 2 года

Сообщений: 7741



Награды: Нет

Торрент-статистика

Создавать темы 19-Май-2015 00:04

[Цитировать]

Энергия Великой Победы- Год выпуска: 2015
Страна: Россия
Студия: Россия HD | "Единая Медиа Группа"
Жанр: Документальный
Продолжительность: 0:42:57
Автор: Светлана Тернер
Режиссер: Александр Евсюков-Описание: Неизвестные топливные битвы Великой Отечественной войны: сражения за тонны угля и нефти, киловатты электроэнергии, кубометры газа. Героическая работа, без которой не было бы выиграно ни одно из сражений. Только на Курской дуге каждый день на фронт приходило по два эшелона горючего. Противник недоумевал: как эти русские умудряются заливать в баки танков вместо нормального топлива сырую нефть, и танки наступают?-Автор рипа: lrn
Автор записи: Generalfilm
Сэмпл: sendfile-Тип релиза: HDTV 720p
Контейнер: MKV
Видео: 1280x720 (16:9), 25,000 fps, H264, ~4000 kbps avg, ~0.174 bit/pixel
Аудио: 48 kHz, AC3 Dolby Digital, 2/0 (L,R) ch, ~192.00 kbps avg-

MediaInfo

GeneralUnique ID : 249592099835308437188220394560559502489 (0xBBC5B09CFE56DEF4A223E2388523D499)Complete name : E:\uTorrent.Temp\Temp\Energiya.Velikoy.Pobedi.2015.HDTV.720p.x264-lrn.mkvFormat : MatroskaFormat version : Version 4 / Version 2File size : 1.26 GiBDuration : 42mn 57sOverall bit rate : 4 194 KbpsMovie name : Energiya.Velikoy.Pobedi.2015.HDTV.720p.x264-lrnEncoded date : UTC 2010-02-22 21:41:31Writing application : mkvmerge v5.9.0 ('On The Loose') built on Dec 9 2012 15:37:01Writing library : Lavf55.12.0
VideoID : 1Format : AVCFormat/Info : Advanced Video CodecFormat profile : High@L4.1Format settings, CABAC : YesFormat settings, ReFrames : 8 framesCodec ID : V_MPEG4/ISO/AVCDuration : 42mn 57sBit rate : 4 000 KbpsWidth : 1 280 pixelsHeight : 720 pixelsDisplay aspect ratio : 16:9Frame rate mode : ConstantFrame rate : 25.000 fpsColor space : YUVChroma subsampling : 4:2:0Bit depth : 8 bitsScan type : ProgressiveBits/(Pixel*Frame) : 0.174Stream size : 1.18 GiB (93%)Writing library : x264 core 142 r2479 dd79a61Encoding settings : cabac=1 / ref=8 / deblock=1:-3:-3 / analyse=0x3:0x113 / me=umh / subme=9 / psy=1 / psy_rd=1.00:0.00 / mixed_ref=1 / me_range=32 / chroma_me=1 / trellis=2 / 8x8dct=1 / cqm=0 / deadzone=21,11 / fast_pskip=1 / chroma_qp_offset=-4 / threads=12 / lookahead_threads=2 / sliced_threads=0 / nr=0 / decimate=1 / interlaced=0 / bluray_compat=0 / constrained_intra=0 / bframes=8 / b_pyramid=2 / b_adapt=2 / b_bias=0 / direct=1 / weightb=1 / open_gop=0 / weightp=2 / keyint=250 / keyint_min=25 / scenecut=40 / intra_refresh=0 / rc_lookahead=50 / rc=2pass / mbtree=1 / bitrate=4000 / ratetol=1.0 / qcomp=0.60 / qpmin=0 / qpmax=69 / qpstep=4 / cplxblur=20.0 / qblur=0.5 / vbv_maxrate=62500 / vbv_bufsize=78125 / nal_hrd=none / filler=0 / ip_ratio=1.40 / aq=1:1.00Default : YesForced : NoColor range : LimitedColor primaries : BT.709Transfer characteristics : BT.709Matrix coefficients : BT.709
AudioID : 2Format : AC-3Format/Info : Audio Coding 3Mode extension : CM (complete main)Format settings, Endianness : BigCodec ID : A_AC3Duration : 42mn 57sBit rate mode : ConstantBit rate : 192 KbpsChannel(s) : 2 channelsChannel positions : Front: L RSampling rate : 48.0 KHzCompression mode : LossyStream size : 59.0 MiB (5%)Language : RussianDefault : YesForced : No

x264 log

raw [info]: 1280x720p 1:1 @ 25/1 fps (cfr)x264 [info]: using SAR=1/1x264 [info]: using cpu capabilities: MMX2 SSE2Fast SSSE3 SSE4.2 AVXx264 [info]: profile High, level 4.1x264 [info]: frame I:461 Avg QP:15.55 size:106832x264 [info]: frame P:17475 Avg QP:18.62 size: 36185x264 [info]: frame B:46487 Avg QP:21.83 size: 13057x264 [info]: consecutive B-frames: 2.6% 4.8% 8.6% 70.0% 6.7% 4.7% 1.5% 1.0% 0.2%x264 [info]: mb I I16..4: 6.2% 69.4% 24.4%x264 [info]: mb P I16..4: 3.8% 16.2% 2.1% P16..4: 35.6% 19.7% 9.7% 0.0% 0.0% skip:12.9%x264 [info]: mb B I16..4: 0.5% 2.5% 0.3% B16..8: 30.1% 11.0% 2.8% direct: 7.1% skip:45.5% L0:42.2% L1:45.1% BI:12.7%x264 [info]: 8x8 transform intra:73.2% inter:65.3%x264 [info]: coded y,uvDC,uvAC intra: 66.0% 51.9% 26.9% inter: 23.9% 17.1% 2.0%x264 [info]: i16 v,h,dc,p: 35% 26% 9% 30%x264 [info]: i8 v,h,dc,ddl,ddr,vr,hd,vl,hu: 14% 12% 12% 7% 11% 11% 12% 10% 12%x264 [info]: i4 v,h,dc,ddl,ddr,vr,hd,vl,hu: 14% 14% 7% 7% 11% 11% 13% 9% 13%x264 [info]: i8c dc,h,v,p: 52% 24% 17% 7%x264 [info]: Weighted P-Frames: Y:6.0% UV:1.4%x264 [info]: ref P L0: 57.1% 9.9% 14.9% 5.7% 4.1% 3.2% 2.7% 2.0% 0.4% 0.0%x264 [info]: ref B L0: 78.8% 10.4% 4.7% 2.4% 1.9% 1.1% 0.6%x264 [info]: ref B L1: 94.9% 5.1%x264 [info]: kb/s:4000.28encoded 64424 frames, 13.31 fps, 4000.28 kb/s

Скриншоты

-
[Профиль] [ЛС]
Кто просматривает тему:

Форум Тема Автор Размер
Dance, Club (Club, Dance)Сборник - Драйвовая энергия клубного танцпола (2015) MP3 BOSS 864 MB
Dance, Club (Dance, Club)VA - Энергия танцпола DFM (2015) MP3 BOSS 1.38 GB
BBC BBC: Horizon: Тайны тёмной энергии / The Mysteries of Dark Energy (Mark Radice) [2015 г., Документальный, научно-познавательный, астрономия, HDTVRip 720p] skorpionN 1.42 GB
BBC BBC: Horizon: Тайны тёмной энергии / The Mysteries of Dark Energy (Mark Radice) [2015 г., Документальный, научно-познавательный, астрономия, SATRip] skorpionN 696 MB
Da Vinci Learning Da Vinci Learning: Эко-2. Энергия / E2. Energy [серии 1-6 из 6] (Тэд Феттинг / Tad Fettig) [2007 г., Документальный, SATRip] skorpionN 2.3 GB
Da Vinci Learning Da Vinci Learning: Энергия 2050 - жизнь после нефти / Energy 2050. A Life After the Oil Crash (Claudia Giczy and Peter Giczy) [2009 г., Документальный, научно-познавательный, SATRip] skorpionN 685 MB
Научная и техническая литература Экономия на строительстве, реконструкция малоэтажного энергоэффективного дома (2015) PDF достали все 35 MB
Показать сообщения:    

Текущее время: Сегодня 08:57

Часовой пояс: GMT



Вы не можете начинать темы
Вы не можете отвечать на сообщения
Вы не можете редактировать свои сообщения
Вы не можете удалять свои сообщения
Вы не можете голосовать в опросах
Вы не можете прикреплять файлы к сообщениям
Вы не можете скачивать файлы