Электра / Elektra (Роб Боуман / Rob Bowman) [2005, США, Канада, боевик, фэнтези, приключения, BDRip 720p] [Theatrical Cut] Dub (CEE) + DVO (Tycoon) + MVO (Ren-TV) + Ukr + Original Eng + Sub (Rus, Eng)

 
Автор Сообщение

AleksSin ®

Пол:

Стаж: 6 лет

Сообщений: 218



Награды: 4 (Подробнее)

Mega Seeder 2 (Количество: 1) Mega Seeder 3 (Количество: 1) Mega Seeder 4 (Количество: 1)
Торрент-статистика

Создавать темы 18-Май-2016 04:19

[Цитировать]

Электра / ElektraОригинальное название: Elektra
Год выхода: 2005
Жанр: фэнтези, боевик, триллер, криминал
Страна: Канада, США
Студия: Epsilon Motion Pictures, Horseshoe Bay Productions, Marvel Enterprises, New Regency Pictures, Regency Enterprises, Twentieth Century Fox Film Corporation
Продолжительность: 01:36:49
Перевод: Профессиональный (полное дублирование) Blu-ray CEEl, Профессиональный (двухголосый, закадровый) Tycoon-Studio, Профессиональный (двухголосый, закадровый) РЕН-ТВ, Профессиональный (двухголосый, закадровый) украинский |Новий канал|
Субтитры: Русские, английские (srt)
Навигация по главам: Есть
Режиссер: Роб Боуман / Rob Bowman
В ролях: Дженнифер Гарнер, Горан Виснич, Кирстен Праут, Уилл Юн Ли, Кэри-Хироюки Тагава, Теренс Стэмп, Натасия Мальте, Боб Сапп, Крио Экерман, Эдсон Т. Рибейро, Колин Каннингэм, Hiro Kanagawa, Марк Хотон, Лаура Уорд, Kurt Max Runte, Натаниель Арканд, Аарон Ау, Кеван Охтци, Йен Трэйси, Яна Мицула, Шон Акира
О фильме:
Сюжет фильма основан на серии комиксов о приключениях греческой наемной убийцы Электры Начиос. Электра получает задание убрать «клиента» и его дочь. Но вместо этого они становятся друзьями и решают вместе противостоять заказчикам — воинам-ниндзя из тайного ордена наемных убийц…

Файл
Кодек: x264
Качество: BDRip 720p (исходник: Elektra (2005) Blu-ray CEE 1080p AVC DTS 5.1)
Видео: 1280x546, 23.976 fps, AVC ~ 5852 kbps avg
Аудио#1: Russian: 48 kHz, AC3, 3/2 (L,C,R,l,r) + LFE ch, ~640.00 kbps avg |Дубляж, Blu-ray CEEl|
Аудио#2: Russian: 48 kHz, AC3, 3/2 (L,C,R,l,r) + LFE ch, ~448.00 kbps avg |Двухголосый закадровый, Tycoon|
Аудио#3: Russian: 48 kHz, AC3, 2/0 (L,R) ch, ~192.00 kbps avg |Многоголосый закадровый, РЕН-ТВ|
Аудио#4: Ukrainian: 48 kHz, AC3, 2/0 (L,R) ch, ~192.00 kbps avg |Двухголосый закадровый, Новый канал|
Аудио#5: English: 48 kHz, DTS, 3/2 (L,C,R,l,r) + LFE ch, ~1536.00 kbps avg - Оригинал

MediaInfo

Log
x264 [info]: frame I:1491 Avg QP:14.00 size: 96404
x264 [info]: frame P:31674 Avg QP:16.17 size: 50795
x264 [info]: frame B:106127 Avg QP:18.49 size: 24746
x264 [info]: consecutive B-frames: 3.8% 3.8% 6.7% 19.7% 13.2% 38.4% 6.4% 4.7% 3.2%
General
Unique ID : 171410128063805538037774337665623371874 (0x80F463CC9D8B95A6BF5092DA8263B062)
Complete name : S:ФильмыЭлектра. 2005. BDRip 720p (AleksSin).mkv
Format : Matroska
Format version : Version 2
File size : 6.10 GiB
Duration : 1h 36mn
Overall bit rate : 9 012 Kbps
Encoded date : UTC 2016-05-17 17:21:07
Writing application : mkvmerge v7.8.0 ('River Man') 32bit built on Apr 3 2015 12:11:22
Writing library : libebml v1.3.1 + libmatroska v1.4.2
Video
ID : 1
Format : AVC
Format/Info : Advanced Video Codec
Format profile : High@L4.1
Format settings, CABAC : Yes
Format settings, ReFrames : 9 frames
Codec ID : V_MPEG4/ISO/AVC
Duration : 1h 36mn
Bit rate : 5 852 Kbps
Width : 1 280 pixels
Height : 546 pixels
Display aspect ratio : 2.35:1
Frame rate mode : Constant
Frame rate : 23.976 (24000/1001) fps
Color space : YUV
Chroma subsampling : 4:2:0
Bit depth : 8 bits
Scan type : Progressive
Bits/(Pixel*Frame) : 0.349
Stream size : 3.96 GiB (65%)
Writing library : x264 core 148 r2692 64f4e24
Encoding settings : cabac=1 / ref=9 / deblock=1:-3:-3 / analyse=0x3:0x133 / me=umh / subme=11 / psy=1 / psy_rd=1.10:0.00 / mixed_ref=1 / me_range=32 / chroma_me=1 / trellis=2 / 8x8dct=1 / cqm=0 / deadzone=21,11 / fast_pskip=1 / chroma_qp_offset=-2 / threads=12 / lookahead_threads=2 / sliced_threads=0 / nr=0 / decimate=1 / interlaced=0 / bluray_compat=0 / constrained_intra=0 / bframes=8 / b_pyramid=2 / b_adapt=2 / b_bias=0 / direct=3 / weightb=1 / open_gop=0 / weightp=2 / keyint=240 / keyint_min=23 / scenecut=40 / intra_refresh=0 / rc_lookahead=60 / rc=crf / mbtree=0 / crf=17.7 / qcomp=0.70 / qpmin=0 / qpmax=69 / qpstep=4 / vbv_maxrate=50000 / vbv_bufsize=62500 / crf_max=0.0 / nal_hrd=none / filler=0 / ip_ratio=1.40 / pb_ratio=1.30 / aq=3:0.85
Default : Yes
Forced : No
Audio #1
ID : 2
Format : AC-3
Format/Info : Audio Coding 3
Mode extension : CM (complete main)
Format settings, Endianness : Big
Codec ID : A_AC3
Duration : 1h 36mn
Bit rate mode : Constant
Bit rate : 640 Kbps
Channel(s) : 6 channels
Channel positions : Front: L C R, Side: L R, LFE
Sampling rate : 48.0 KHz
Frame rate : 31.250 fps (1536 spf)
Compression mode : Lossy
Stream size : 443 MiB (7%)
Title : Дубляж, Blu-ray CEEl
Language : Russian
Default : Yes
Forced : No
Audio #2
ID : 3
Format : AC-3
Format/Info : Audio Coding 3
Mode extension : CM (complete main)
Format settings, Endianness : Big
Codec ID : A_AC3
Duration : 1h 36mn
Bit rate mode : Constant
Bit rate : 448 Kbps
Channel(s) : 6 channels
Channel positions : Front: L C R, Side: L R, LFE
Sampling rate : 48.0 KHz
Frame rate : 31.250 fps (1536 spf)
Compression mode : Lossy
Stream size : 310 MiB (5%)
Title : Двухголосый закадровый, Tycoon
Language : Russian
Default : No
Forced : No
Audio #3
ID : 4
Format : AC-3
Format/Info : Audio Coding 3
Mode extension : CM (complete main)
Format settings, Endianness : Big
Codec ID : A_AC3
Duration : 1h 36mn
Bit rate mode : Constant
Bit rate : 192 Kbps
Channel(s) : 2 channels
Channel positions : Front: L R
Sampling rate : 48.0 KHz
Frame rate : 31.250 fps (1536 spf)
Compression mode : Lossy
Stream size : 133 MiB (2%)
Title : Многоголосый закадровый, РЕН-ТВ
Language : Russian
Default : No
Forced : No
Audio #4
ID : 5
Format : AC-3
Format/Info : Audio Coding 3
Mode extension : CM (complete main)
Format settings, Endianness : Big
Codec ID : A_AC3
Duration : 1h 36mn
Bit rate mode : Constant
Bit rate : 192 Kbps
Channel(s) : 2 channels
Channel positions : Front: L R
Sampling rate : 48.0 KHz
Frame rate : 31.250 fps (1536 spf)
Compression mode : Lossy
Stream size : 133 MiB (2%)
Title : Двухголосый закадровый, Новый канал
Language : Russian
Default : No
Forced : No
Audio #5
ID : 6
Format : DTS
Format/Info : Digital Theater Systems
Mode : 16
Format settings, Endianness : Big
Codec ID : A_DTS
Duration : 1h 36mn
Bit rate mode : Constant
Bit rate : 1 509 Kbps
Channel(s) : 6 channels
Channel positions : Front: L C R, Side: L R, LFE
Sampling rate : 48.0 KHz
Frame rate : 93.750 fps (512 spf)
Bit depth : 24 bits
Compression mode : Lossy
Stream size : 1.02 GiB (17%)
Title : Оригинал
Language : English
Default : No
Forced : No
Text #1
ID : 7
Format : UTF-8
Codec ID : S_TEXT/UTF8
Codec ID/Info : UTF-8 Plain Text
Title : (srt)
Language : Russian
Default : Yes
Forced : No
Text #2
ID : 8
Format : UTF-8
Codec ID : S_TEXT/UTF8
Codec ID/Info : UTF-8 Plain Text
Title : (srt)
Language : English
Default : No
Forced : No
Menu
00:00:00.000 : en:
00:02:30.025 : en:
00:07:01.211 : en:
00:08:11.949 : en:
00:11:47.999 : en:
00:13:39.110 : en:
00:16:42.210 : en:
00:20:38.193 : en:
00:22:20.256 : en:
00:29:01.573 : en:
00:32:07.048 : en:
00:36:21.221 : en:
00:39:17.188 : en:
00:44:20.574 : en:
00:50:31.277 : en:
00:52:12.295 : en:
00:54:47.701 : en:
01:01:10.166 : en:
01:04:24.610 : en:
01:09:38.091 : en:
01:16:25.537 : en:
01:19:18.377 : en:
01:22:25.564 : en:
01:27:40.671 : en:

Скриншоты

[Профиль] [ЛС]
Кто просматривает тему:

Форум Тема Автор Размер
BBC BBC: Horizon. Электронные сигареты: чудо или угроза? / Horizon. E-Cigarettes: Miracle or Menace? (Emma Hatherley) [2016 г., Документальный, научно-познавательный, HDTVRip-AVC 720p] skorpionN 1.81 GB
Разное Автор книги - Правила устройства электроустановок (2015) PDF ODESSA 162 MB
Научная и техническая литература Алиев И.И. (сост.) - Электротехнический справочник в 3-х томах (2006-2010) PDF достали все 340 MB
Научная и техническая литература Андрей Кашкаров | Занимательная электроника. Нешаблонная энциклопедия полезных схем (2015) [PDF, FB2] достали все 17 MB
Научная и техническая литература Анна Печкарева | Электричество на даче (2015) [FB2, RTF] достали все 16 MB
Компьютерная литература (Программирование) В 10 раз быстрее - Горбачёв А.Г., Котлеев Д.В. - Microsoft Word. Работайте с электронными документами в 10 раз быстрее [2007, PDF, RUS] TorrentFilm 9 MB
Фантастика и фэнтези Виталий Вавикин - Электрические сны [Виталий Вавикин, 2015, Фантастика, киберпанк, 128 kbps] Garik014 632 MB
Научная и техническая литература Жабцев В.М. - Электричество в доме. Защита и безопасность достали все 20 MB
Показать сообщения:    

Текущее время: Сегодня 08:07

Часовой пояс: GMT



Вы не можете начинать темы
Вы не можете отвечать на сообщения
Вы не можете редактировать свои сообщения
Вы не можете удалять свои сообщения
Вы не можете голосовать в опросах
Вы не можете прикреплять файлы к сообщениям
Вы не можете скачивать файлы