Элегия / Elegy (2008) BDRip 720p by msltel | D

 
Автор Сообщение

sergej644 ®

Пол:

Стаж: 4 года 11 месяцев

Сообщений: 6044

Откуда: Soviet Union



Награды: Нет

Торрент-статистика

Создавать темы 08-Фев-2015 19:38

[Цитировать]

Название: Элегия
Оригинальное название: Elegy
Год выпуска: 2008
Жанр: драма, мелодрама
Выпущено: США, Lakeshore Entertainment
Режиссер: Изабель Койшет
В ролях: Пенелопа Крус, Бен Кингсли, Дэннис Хоппер, Патришия Кларксон, Питер Сарсгаард, Дебора Харри, Чарли Роуз, Антонио Цупо, Мишель Харрисон, Соня Беннет, Эмили Холмс, Чела Хорсдэл, Марси Т. Хаус, Алессандро Джулиани, Тиффани Линдолл-Найт, Лаура Меннелл, Андре Ламал, Шейкер Палеха, Крис Поуп, Джулиан Ричингс, Таня Солнье, Майкл Тиган, Браден Дженнингс
О фильме: История взаимоотношений преподавателя колледжа Дэвида Кепеша и юной непорочной кубинки Консуэлы Костило, которую он встречает в Нью-Йорке. Он — одинокий плейбой, буквально воспринявший лозунги сексуальной революции, оставивший жену и детей взамен на сексуальную беспечность. Она — единственная дочь католического семейства кубинских иммигрантов. И кажущаяся пропасть между ними становится почвой для обжигающего романа, бросившего Кепеша из безумных безответственных связей в водоворот любовных страданий и ревности.
Качество: BDRip 720p
Видео: MPEG-4 AVC, 6419 Kбит/с, 1280x694
Аудио: Русский, английский (AC3, 6 ch, 448 Кбит/с)
Размер: 5.88 ГБ
Продолжительность: 01:52:47
Перевод: Дублированный
Субтитры: русские, английские

Награды

Берлинский кинофестиваль, 2008 год
Номинации (1):
Золотой Медведь

MediaInfo

Общее
Уникальный идентификатор : 239483574188742439072255657459117545037 (0xB42ADBD1EBE86B2090B284772161564D)
Полное имя : D:VideoElegija.2008.BDRip.720p.mkv
Формат : Matroska
Версия формата : Version 4 / Version 2
Размер файла : 5,88 Гбайт
Продолжительность : 1 ч. 52 м.
Общий поток : 7464 Кбит/сек
Дата кодирования : UTC 2014-09-23 06:12:09
Программа кодирования : mkvmerge v6.9.1 ('Blue Panther') 64bit built on Apr 18 2014 18:23:38
Библиотека кодирования : libebml v1.3.0 + libmatroska v1.4.1
Видео
Идентификатор : 1
Формат : AVC
Формат/Информация : Advanced Video Codec
Профиль формата : High@L4.1
Параметр CABAC формата : Да
Параметр ReFrames формата : 9 кадров
Идентификатор кодека : V_MPEG4/ISO/AVC
Продолжительность : 1 ч. 52 м.
Битрейт : 6419 Кбит/сек
Ширина : 1280 пикселей
Высота : 694 пикселя
Соотношение сторон : 1,85:1
Режим частоты кадров : Постоянный
Частота кадров : 24,000 кадра/сек
Цветовое пространство : YUV
Субдискретизация насыщенности : 4:2:0
Битовая глубина : 8 бит
Тип развёртки : Прогрессивная
Бит/(Пиксели*Кадры) : 0.301
Размер потока : 5,06 Гбайт (86%)
Заголовок : BDRip -- STarankov
Библиотека кодирования : x264 core 142 r2431 ac76440
Настройки программы : cabac=1 / ref=9 / deblock=1:-1:-1 / analyse=0x3:0x113 / me=umh / subme=10 / psy=1 / psy_rd=1.00:0.15 / mixed_ref=1 / me_range=32 / chroma_me=1 / trellis=2 / 8x8dct=1 / cqm=0 / deadzone=21,11 / fast_pskip=0 / chroma_qp_offset=-3 / threads=6 / lookahead_threads=1 / sliced_threads=0 / nr=0 / decimate=1 / interlaced=0 / bluray_compat=0 / constrained_intra=0 / bframes=8 / b_pyramid=2 / b_adapt=2 / b_bias=0 / direct=1 / weightb=1 / open_gop=0 / weightp=2 / keyint=230 / keyint_min=23 / scenecut=40 / intra_refresh=0 / rc_lookahead=40 / rc=crf / mbtree=0 / crf=18.0 / qcomp=0.60 / qpmin=0 / qpmax=69 / qpstep=4 / vbv_maxrate=40000 / vbv_bufsize=50000 / crf_max=0.0 / nal_hrd=none / filler=0 / ip_ratio=1.40 / pb_ratio=1.30 / aq=1:1.00
Язык : English
Default : Да
Forced : Нет
Аудио #1
Идентификатор : 2
Формат : AC-3
Формат/Информация : Audio Coding 3
Расширение режима : CM (complete main)
Параметр Endianness формата : Big
Идентификатор кодека : A_AC3
Продолжительность : 1 ч. 52 м.
Вид битрейта : Постоянный
Битрейт : 448 Кбит/сек
Каналы : 6 каналов
Расположение каналов : Front: L C R, Side: L R, LFE
Частота : 48,0 КГц
Битовая глубина : 16 бит
Метод сжатия : С потерями
Размер потока : 361 Мбайт (6%)
Заголовок : DUB
Язык : Russian
Default : Да
Forced : Нет
Аудио #2
Идентификатор : 3
Формат : AC-3
Формат/Информация : Audio Coding 3
Расширение режима : CM (complete main)
Параметр Endianness формата : Big
Идентификатор кодека : A_AC3
Продолжительность : 1 ч. 52 м.
Вид битрейта : Постоянный
Битрейт : 448 Кбит/сек
Каналы : 6 каналов
Расположение каналов : Front: L C R, Side: L R, LFE
Частота : 48,0 КГц
Битовая глубина : 16 бит
Метод сжатия : С потерями
Размер потока : 361 Мбайт (6%)
Заголовок : Original
Язык : English
Default : Нет
Forced : Нет
Текст #1
Идентификатор : 4
Формат : UTF-8
Идентификатор кодека : S_TEXT/UTF8
Идентификатор кодека/Информация : UTF-8 Plain Text
Заголовок : русский
Язык : Russian
Default : Нет
Forced : Нет
Текст #2
Идентификатор : 5
Формат : UTF-8
Идентификатор кодека : S_TEXT/UTF8
Идентификатор кодека/Информация : UTF-8 Plain Text
Заголовок : английский
Default : Нет
Forced : Нет

Скриншоты

[Профиль] [ЛС]
Показать сообщения:    

Текущее время: Сегодня 14:29

Часовой пояс: GMT



Вы не можете начинать темы
Вы не можете отвечать на сообщения
Вы не можете редактировать свои сообщения
Вы не можете удалять свои сообщения
Вы не можете голосовать в опросах
Вы не можете прикреплять файлы к сообщениям
Вы не можете скачивать файлы