Элвис и Никсон / Elvis & Nixon (2016) WEB-DL 1080p | iTunes

 
Автор Сообщение

Russian Mafia ®

Пол:

Стаж: 1 год 8 месяцев

Сообщений: 4253



Награды: 10 (Подробнее)

Top Releaser 3 (Количество: 1) Mega Seeder 2 (Количество: 1) Mega Seeder 3 (Количество: 1)
Торрент-статистика

Создавать темы 30-Май-2016 20:12

[Цитировать]

Информация о фильме
Название: Элвис и Никсон
Оригинальное название: Elvis & Nixon
Год выхода: 2016
Жанр: комедия, история
Режиссер: Лиза Джонсон
В ролях: Кевин Спейси, Майкл Шеннон, Алекс Петтифер, Джонни Ноксвил, Колин Хэнкс, Эван Питерс, Скай Феррейра, Трэйси Леттс, Тейт Донован, Эшли Бенсон
О фильме: О чем болтали король рок-н-ролла Элвис Пресли и президент США Ричард Никсон, когда они встретились в Овальном кабинете? Обеспокоенный стремительным распространением в Америке наркомании и социализма, Элвис просит назначить его тайным агентом наркоконтроля. Президент принимает предложение певца, но заставить Пресли соблюсти хотя бы протокол Белому дому так и не удалось…

Выпущено: США
Продолжительность: 01:22:30
Озвучивание: Дублированное [iTunes]
Файл
Формат: MKV
Качество: WEB-DL 1080p
Видео: MPEG-4 AVC, 4371 kb/s, 1920x802
Аудио: AC3, 384 kb/s (6 ch)

MI

Format : Matroska
Format version : Version 4 / Version 2
File size : 2.80 GiB
Duration : 1h 22mn
Overall bit rate : 4 851 Kbps
Encoded date : UTC 2016-05-30 17:06:17
Writing application : mkvmerge v8.3.0 ('Over the Horizon') 64bit
Writing library : libebml v1.3.1 + libmatroska v1.4.2
Video
ID : 1
Format : AVC
Format/Info : Advanced Video Codec
Format profile : High@L4
Format settings, CABAC : Yes
Format settings, ReFrames : 5 frames
Codec ID : V_MPEG4/ISO/AVC
Duration : 1h 22mn
Bit rate : 4 371 Kbps
Width : 1 920 pixels
Height : 802 pixels
Display aspect ratio : 2.40:1
Frame rate mode : Constant
Frame rate : 25.000 fps
Color space : YUV
Chroma subsampling : 4:2:0
Bit depth : 8 bits
Scan type : Progressive
Bits/(Pixel*Frame) : 0.114
Stream size : 2.52 GiB (90%)
Language : English
Default : Yes
Forced : No
Color range : Limited
Color primaries : BT.709
Transfer characteristics : BT.709
Matrix coefficients : BT.709
Audio
ID : 2
Format : AC-3
Format/Info : Audio Coding 3
Mode extension : CM (complete main)
Format settings, Endianness : Big
Codec ID : A_AC3
Duration : 1h 22mn
Bit rate mode : Constant
Bit rate : 384 Kbps
Channel(s) : 6 channels
Channel positions : Front: L C R, Side: L R, LFE
Sampling rate : 48.0 KHz
Bit depth : 16 bits
Compression mode : Lossy
Stream size : 227 MiB (8%)
Language : Russian
Default : Yes
Forced : No
Menu
00:00:00.000 : en:Глава 1
00:06:00.440 : en:Глава 2
00:11:11.960 : en:Глава 3
00:16:57.200 : en:Глава 4
00:22:17.760 : en:Глава 5
00:28:13.320 : en:Глава 6
00:33:45.640 : en:Глава 7
00:39:42.200 : en:Глава 8
00:45:12.720 : en:Глава 9
00:51:07.680 : en:Глава 10
00:57:06.240 : en:Глава 11
01:04:25.840 : en:Глава 12
01:10:13.560 : en:Глава 13
01:16:17.160 : en:Глава 14

Скриншоты

[Профиль] [ЛС]
Показать сообщения:    

Текущее время: Сегодня 10:27

Часовой пояс: GMT



Вы не можете начинать темы
Вы не можете отвечать на сообщения
Вы не можете редактировать свои сообщения
Вы не можете удалять свои сообщения
Вы не можете голосовать в опросах
Вы не можете прикреплять файлы к сообщениям
Вы не можете скачивать файлы