Элвин и бурундуки: Грандиозное бурундуключение / Alvin and the Chipmunks: The Road Chip (2015) BDRemux 1080p | Лицензия

 
Автор Сообщение

Russian Mafia ®

Пол:

Стаж: 1 год 8 месяцев

Сообщений: 4260



Награды: 10 (Подробнее)

Mega Seeder 5 (Количество: 1) Mega Seeder 1 (Количество: 1) Mega Seeder 2 (Количество: 1)
Торрент-статистика

Создавать темы 03-Апр-2016 05:15

[Цитировать]

Информация о фильме
Название: Элвин и бурундуки: Грандиозное бурундуключение
Оригинальное название: Alvin and the Chipmunks: The Road Chip
Год выхода: 2015
Жанр: мультфильм, комедия, приключения, семейный
Режиссер: Уолт Бекер
В ролях: Джейсон Ли, Джастин Лонг, Мэттью Грей Гублер ,Джесси МакКартни ,Кимберли Уильямс-Пэйсли, Джош Грин, Тони Хейл, Белла Торн ,Эдди Стиплз, Кристина Эпплгейт
О фильме:
Бурундуки пойдут на всё, чтобы сохранить свою семью, даже на грандиозное бурундуключение по всей Америке! Когда Бурундуки видят, что Дэйв берет с собой коробочку с кольцом в поездку в Майами, они отчаянно пытаются помешать ему сделать предложение его девушке — из опасения, что мачеха и сводный брат внесут перемены в их семейную идиллию. Но после того, как их помещают в черный список за хулиганское поведение в самолете, Элвин, Саймон, Теодор и их будущий брат Майлз отправляются в самое важное путешествие в их жизни через всю страну, чтобы успеть помешать помолвке.

Страна: США
Студия: Fox 2000 Pictures, Regency Enterprises, Bagdasarian Productions
Продолжительность: 01:32:00
Перевод: Дублированный | Blu-Ray EUR
Файл
Кодек: MPEG-4
Качество: BDRemux 1080p
Видео: 1920x1080, 27.5 Mbit/s, 23976 fps
Звук:
Аудио #1: 48.0 Khz, DTS, 5.1, 768 Kbps | Дублированный, лицензия Blu-Ray EUR | RUS
Аудио #2: 48.0 Khz, AC3, 5.1, 448 Kbps | Дублированный, лицензия Blu-Ray EUR | UKR
Аудио #3: 48.0 Khz, DTS-HD MA, 7.1, 4569 Kbps | Оригинал | ENG
Субтитры: Русские (forced, full), английские, украинские
Релиз от:

Media-info

Формат : Matroska
Версия формата : Version 4 / Version 2
Размер файла : 21,4 Гбайт
Продолжительность : 1 ч. 32 м.
Режим общего битрейта : Переменный
Общий поток : 33,3 Мбит/сек
Название фильма : Alvin.and.the.Chipmunks.The.Road.Chip.2015.BDREMUX.1080p
Дата кодирования : UTC 2016-04-02 06:40:08
Программа кодирования : mkvmerge v8.3.0 ('Over the Horizon') 64bit
Библиотека кодирования : libebml v1.3.1 + libmatroska v1.4.2
Видео
Идентификатор : 1
Формат : AVC
Формат/Информация : Advanced Video Codec
Профиль формата : High@L4.1
Параметр CABAC формата : Да
Параметр ReFrames формата : 4 кадра
Идентификатор кодека : V_MPEG4/ISO/AVC
Продолжительность : 1 ч. 32 м.
Вид битрейта : Переменный
Битрейт : 27,5 Мбит/сек
Максимальный битрейт : 29,0 Мбит/сек
Ширина : 1920 пикселей
Высота : 1080 пикселей
Соотношение сторон : 16:9
Режим частоты кадров : Постоянный
Частота кадров : 23,976 (24000/1001) кадра/сек
Цветовое пространство : YUV
Субдискретизация насыщенности : 4:2:0
Битовая глубина : 8 бит
Тип развёртки : Прогрессивная
Бит/(Пиксели*Кадры) : 0.552
Размер потока : 17,6 Гбайт (82%)
Язык : English
Default : Да
Forced : Нет
Аудио #1
Идентификатор : 2
Формат : DTS
Формат/Информация : Digital Theater Systems
Режим : 16
Параметр Endianness формата : Big
Идентификатор кодека : A_DTS
Продолжительность : 1 ч. 32 м.
Вид битрейта : Постоянный
Битрейт : 768 Кбит/сек
Каналы : 6 каналов
Расположение каналов : Front: L C R, Side: L R, LFE
Частота : 48,0 КГц
Частота кадров : 93,750 кадра/сек (512 spf)
Битовая глубина : 24 бит
Метод сжатия : С потерями
Размер потока : 505 Мбайт (2%)
Заголовок : DUB Blu-Ray EUR
Язык : Russian
Default : Да
Forced : Нет
Аудио #2
Идентификатор : 3
Формат : AC-3
Формат/Информация : Audio Coding 3
Расширение режима : CM (complete main)
Параметр Endianness формата : Big
Идентификатор кодека : A_AC3
Продолжительность : 1 ч. 32 м.
Вид битрейта : Постоянный
Битрейт : 448 Кбит/сек
Каналы : 6 каналов
Расположение каналов : Front: L C R, Side: L R, LFE
Частота : 48,0 КГц
Частота кадров : 31,250 кадров/сек (1536 spf)
Метод сжатия : С потерями
Размер потока : 295 Мбайт (1%)
Заголовок : DUB Blu-Ray EUR
Язык : Ukrainian
Default : Нет
Forced : Нет
Аудио #3
Идентификатор : 4
Формат : DTS
Формат/Информация : Digital Theater Systems
Профиль формата : MA / ES Matrix / Core
Режим : 16
Параметр Endianness формата : Big
Идентификатор кодека : A_DTS
Продолжительность : 1 ч. 32 м.
Вид битрейта : Переменный / Постоянный / Постоянный
Битрейт : 4569 Кбит/сек / 1509 Кбит/сек / 1509 Кбит/сек
Каналы : 8 каналов / 7 каналов / 6 каналов
Расположение каналов : Front: L C R, Side: L R, Back: L R, LFE / Front: L C R, Side: L R, Back: C, LFE / Front: L C R, Side: L R, LFE
Частота : 48,0 КГц
Частота кадров : 93,750 кадра/сек (512 spf)
Битовая глубина : 24 бит
Метод сжатия : Без потерь / Lossy / Lossy
Размер потока : 2,94 Гбайт (14%)
Язык : English
Default : Нет
Forced : Нет
Текст #1
Идентификатор : 5
Формат : UTF-8
Идентификатор кодека : S_TEXT/UTF8
Идентификатор кодека/Информация : UTF-8 Plain Text
Продолжительность : 18 м.
Битрейт : 3 бит/сек
Count of elements : 6
Размер потока : 520 байт (0%)
Заголовок : Forced
Язык : Russian
Default : Да
Forced : Нет
Текст #2
Идентификатор : 6
Формат : UTF-8
Идентификатор кодека : S_TEXT/UTF8
Идентификатор кодека/Информация : UTF-8 Plain Text
Продолжительность : 1 ч. 31 м.
Битрейт : 116 бит/сек
Count of elements : 1606
Размер потока : 78,0 Кбайт (0%)
Язык : Russian
Default : Нет
Forced : Нет
Текст #3
Идентификатор : 7
Формат : PGS
Режим смешивания : zlib
Идентификатор кодека : S_HDMV/PGS
Идентификатор кодека/Информация : Picture based subtitle format used on BDs/HD-DVDs
Продолжительность : 1 ч. 29 м.
Битрейт : 216 бит/сек
Count of elements : 14
Размер потока : 142 Кбайт (0%)
Язык : Russian
Default : Нет
Forced : Нет
Текст #4
Идентификатор : 8
Формат : PGS
Режим смешивания : zlib
Идентификатор кодека : S_HDMV/PGS
Идентификатор кодека/Информация : Picture based subtitle format used on BDs/HD-DVDs
Продолжительность : 1 ч. 31 м.
Битрейт : 28,8 Кбит/сек
Count of elements : 3212
Размер потока : 18,8 Мбайт (0%)
Язык : Russian
Default : Нет
Forced : Нет
Текст #5
Идентификатор : 9
Формат : UTF-8
Идентификатор кодека : S_TEXT/UTF8
Идентификатор кодека/Информация : UTF-8 Plain Text
Продолжительность : 1 ч. 31 м.
Битрейт : 119 бит/сек
Count of elements : 1627
Размер потока : 80,1 Кбайт (0%)
Язык : Ukrainian
Default : Нет
Forced : Нет
Текст #6
Идентификатор : 10
Формат : PGS
Режим смешивания : zlib
Идентификатор кодека : S_HDMV/PGS
Идентификатор кодека/Информация : Picture based subtitle format used on BDs/HD-DVDs
Продолжительность : 1 ч. 31 м.
Битрейт : 28,7 Кбит/сек
Count of elements : 3254
Размер потока : 18,7 Мбайт (0%)
Язык : Ukrainian
Default : Нет
Forced : Нет
Текст #7
Идентификатор : 11
Формат : UTF-8
Идентификатор кодека : S_TEXT/UTF8
Идентификатор кодека/Информация : UTF-8 Plain Text
Продолжительность : 1 ч. 5 м.
Битрейт : 0 бит/сек
Count of elements : 5
Размер потока : 231 байт (0%)
Заголовок : Forced
Язык : English
Default : Нет
Forced : Нет
Текст #8
Идентификатор : 12
Формат : UTF-8
Идентификатор кодека : S_TEXT/UTF8
Идентификатор кодека/Информация : UTF-8 Plain Text
Продолжительность : 1 ч. 31 м.
Битрейт : 90 бит/сек
Count of elements : 2183
Размер потока : 60,4 Кбайт (0%)
Язык : English
Default : Нет
Forced : Нет
Текст #9
Идентификатор : 13
Формат : UTF-8
Идентификатор кодека : S_TEXT/UTF8
Идентификатор кодека/Информация : UTF-8 Plain Text
Продолжительность : 1 ч. 31 м.
Битрейт : 96 бит/сек
Count of elements : 2308
Размер потока : 64,2 Кбайт (0%)
Заголовок : SDH
Язык : English
Default : Нет
Forced : Нет
Текст #10
Идентификатор : 14
Формат : PGS
Режим смешивания : zlib
Идентификатор кодека : S_HDMV/PGS
Идентификатор кодека/Информация : Picture based subtitle format used on BDs/HD-DVDs
Продолжительность : 1 ч. 31 м.
Битрейт : 20,7 Кбит/сек
Count of elements : 4686
Размер потока : 13,5 Мбайт (0%)
Язык : English
Default : Нет
Forced : Нет
Текст #11
Идентификатор : 15
Формат : PGS
Режим смешивания : zlib
Идентификатор кодека : S_HDMV/PGS
Идентификатор кодека/Информация : Picture based subtitle format used on BDs/HD-DVDs
Продолжительность : 1 ч. 26 м.
Битрейт : 62 бит/сек
Count of elements : 36
Размер потока : 39,4 Кбайт (0%)
Язык : English
Default : Нет
Forced : Нет
Меню
00:00:00.000 : en:00:00:00.000
00:05:35.210 : en:00:05:35.210
00:08:09.322 : en:00:08:09.322
00:12:31.042 : en:00:12:31.042
00:16:40.333 : en:00:16:40.333
00:20:11.085 : en:00:20:11.085
00:22:45.447 : en:00:22:45.447
00:24:56.870 : en:00:24:56.870
00:27:57.217 : en:00:27:57.217
00:30:30.829 : en:00:30:30.829
00:35:27.751 : en:00:35:27.751
00:39:55.059 : en:00:39:55.059
00:42:55.531 : en:00:42:55.531
00:45:58.506 : en:00:45:58.506
00:49:43.480 : en:00:49:43.480
00:55:16.563 : en:00:55:16.563
00:58:13.490 : en:00:58:13.490
01:01:46.244 : en:01:01:46.244
01:04:39.000 : en:01:04:39.000
01:09:26.662 : en:01:09:26.662
01:13:25.860 : en:01:13:25.860
01:16:30.878 : en:01:16:30.878
01:21:39.811 : en:01:21:39.811
01:25:03.932 : en:01:25:03.932

Скриншоты

[Профиль] [ЛС]
Кто просматривает тему:

Форум Тема Автор Размер
Зарубежные мультфильмы Элвин и бурундуки: Грандиозное бурундуключение / Alvin and the Chipmunks: The Road Chip (2015) BDRemux 1080p | D | iTunes достали все 22.55 GB
Зарубежные мультфильмы Элвин и бурундуки: Грандиозное бурундуключение / Alvin and the Chipmunks: The Road Chip (2015) BDRip 1080p | Лицензия BOSS 10.42 GB
Зарубежные мультфильмы Элвин и бурундуки: Грандиозное бурундуключение / Alvin and the Chipmunks: The Road Chip (2015) BDRip 720p | Лицензия BOSS 5.6 GB
Зарубежные мультфильмы Элвин и бурундуки: Грандиозное бурундуключение / Alvin and the Chipmunks: The Road Chip (2015) BDRip | D | Лицензия BOSS 1.46 GB
Зарубежные мультфильмы Элвин и бурундуки: Грандиозное бурундуключение / Alvin and the Chipmunks: The Road Chip (2015) BDRip-AVC | Лицензия достали все 1.46 GB
Зарубежные мультфильмы Элвин и бурундуки: Грандиозное бурундуключение / Alvin and the Chipmunks: The Road Chip (2015) DVD5 BOSS 4.36 GB
Зарубежные мультфильмы Элвин и бурундуки: Грандиозное бурундуключение / Alvin and the Chipmunks: The Road Chip (Уолт Бекер) [2015 г., мультфильм, фэнтези, комедия, приключения, семейный, музыка, BDRip 1080p] DUB (iTunes) BOSS 7.89 GB
Зарубежные мультфильмы Элвин и бурундуки: Грандиозное бурундуключение / Alvin and the Chipmunks: The Road Chip (Уолт Бекер) [2015 г., мультфильм, фэнтези, комедия, приключения, семейный, музыка, BDRip 1080p] DUB (Чис... BOSS 7.76 GB
Показать сообщения:    

Текущее время: Сегодня 14:09

Часовой пояс: GMT



Вы не можете начинать темы
Вы не можете отвечать на сообщения
Вы не можете редактировать свои сообщения
Вы не можете удалять свои сообщения
Вы не можете голосовать в опросах
Вы не можете прикреплять файлы к сообщениям
Вы не можете скачивать файлы