Элвин и бурундуки: Грандиозное бурундуключение / Alvin and the Chipmunks: The Road Chip (2015) BDRip-AVC | Лицензия

 
Автор Сообщение

достали все ®

Пол:

Стаж: 1 год 8 месяцев

Сообщений: 6565



Награды: 12 (Подробнее)

Top Releaser 3 (Количество: 1) Mega Seeder 2 (Количество: 1) Mega Seeder 3 (Количество: 1)
Торрент-статистика

Создавать темы 02-Апр-2016 10:06

[Цитировать]

Информация о фильме
Название: Элвин и бурундуки: Грандиозное бурундуключение
Оригинальное название: Alvin and the Chipmunks: The Road Chip
Год выхода: 2015
Жанр: мультфильм, комедия, приключения, семейный
Режиссер: Уолт Бекер / Walt Becker
В ролях: Джейсон Ли, Джастин Лонг, Мэттью Грей Гублер ,Джесси МакКартни ,Кимберли Уильямс-Пэйсли, Джош Грин, Тони Хейл, Белла Торн ,Эдди Стиплз, Кристина Эпплгейт
Описание:Когда Бурундуки видят, что Дэйв берет с собой коробочку с кольцом в поездку в Майами, они отчаянно пытаются помешать ему сделать предложение его девушке — из опасения, что мачеха и сводный брат внесут перемены в их семейную идиллию. Но после того, как их помещают в черный список за хулиганское поведение в самолете, Элвин, Саймон, Теодор и их будущий брат Майлз отправляются в самое важное путешествие в их жизни через всю страну, чтобы успеть помешать помолвке.

Выпущено: США / Fox 2000 Pictures, Regency Enterprises, Bagdasarian Productions
Продолжительность: 01:32:00
Перевод: Профессиональный (полное дублирование)
Файл
Кодек: x264
Качество: BDRip(AVC)
Видео: 1024x552 (1,85:1), 23,976 fps, х264 ~ 1820 kbps avg,
Звук: AC3, 6 ch, 448 Кбит/с
Субтитры: русские (Forced (x2)), русские, украинские (полные + форс.), английские (Forced + Full + SDH): вшитые, отключаемые

MI

Общее
Уникальный идентификатор : 227321665028254969953808421629254318062 (0xAB048F6735661D7D8B5F8E9B755637EE)
Полное имя : D:ВидеоAlvin and the Chipmunks The Road Chip.2015.BDRip(AVC) 1.46 by Vovan366(ExKinoRay) .mkv
Формат : Matroska
Версия формата : Version 4 / Version 2
Размер файла : 1,46 Гбайт
Продолжительность : 1 ч. 32 м.
Общий поток : 2269 Кбит/сек
Название фильма : Alvin and the Chipmunks The Road Chip.2015.BDRip(AVC) by Vovan366
Дата кодирования : UTC 2016-04-02 09:25:10
Программа кодирования : mkvmerge v8.9.0 ('Father Daughter') 64bit
Библиотека кодирования : libebml v1.3.3 + libmatroska v1.4.4
DURATION : 01:32:00.128000000
NUMBER_OF_FRAMES : 172504
NUMBER_OF_BYTES : 309127168
_STATISTICS_WRITING_APP : mkvmerge v8.9.0 ('Father Daughter') 64bit
_STATISTICS_WRITING_DATE_UTC : 2016-04-02 09:25:10
_STATISTICS_TAGS : BPS DURATION NUMBER_OF_FRAMES NUMBER_OF_BYTES
Видео
Идентификатор : 1
Формат : AVC
Формат/Информация : Advanced Video Codec
Профиль формата : High@L4.1
Параметр CABAC формата : Да
Параметр ReFrames формата : 10 кадров
Идентификатор кодека : V_MPEG4/ISO/AVC
Продолжительность : 1 ч. 32 м.
Битрейт : 1820 Кбит/сек
Ширина : 1024 пикселя
Высота : 552 пикселя
Соотношение сторон : 1,85:1
Режим частоты кадров : Постоянный
Частота кадров : 23,976 кадра/сек
Цветовое пространство : YUV
Субдискретизация насыщенности : 4:2:0
Битовая глубина : 8 бит
Тип развёртки : Прогрессивная
Бит/(Пиксели*Кадры) : 0.134
Размер потока : 1,14 Гбайт (78%)
Заголовок : by Vovan366(ExKinoRay)
Библиотека кодирования : x264 core 148 r2638 7599210
Настройки программы : cabac=1 / ref=10 / deblock=1:-3:-3 / analyse=0x3:0x113 / me=umh / subme=10 / psy=1 / psy_rd=1.01:0.10 / mixed_ref=1 / me_range=32 / chroma_me=1 / trellis=2 / 8x8dct=1 / cqm=0 / deadzone=21,11 / fast_pskip=0 / chroma_qp_offset=-3 / threads=6 / lookahead_threads=1 / sliced_threads=0 / nr=0 / decimate=0 / interlaced=0 / bluray_compat=0 / constrained_intra=0 / bframes=10 / b_pyramid=2 / b_adapt=2 / b_bias=0 / direct=3 / weightb=1 / open_gop=0 / weightp=2 / keyint=240 / keyint_min=23 / scenecut=40 / intra_refresh=0 / rc=2pass / mbtree=0 / bitrate=1820 / ratetol=1.0 / qcomp=0.60 / qpmin=0 / qpmax=69 / qpstep=4 / cplxblur=20.0 / qblur=0.5 / ip_ratio=1.40 / pb_ratio=1.30 / aq=1:1.00
Default : Да
Forced : Нет
Основные цвета : BT.709
Характеристики трансфера : BT.709
Коэффициенты матрицы : BT.709
Аудио
Идентификатор : 2
Формат : AC-3
Формат/Информация : Audio Coding 3
Расширение режима : CM (complete main)
Параметр Endianness формата : Big
Идентификатор кодека : A_AC3
Продолжительность : 1 ч. 32 м.
Вид битрейта : Постоянный
Битрейт : 448 Кбит/сек
Каналы : 6 каналов
Расположение каналов : Front: L C R, Side: L R, LFE
Частота : 48,0 КГц
Битовая глубина : 16 бит
Метод сжатия : С потерями
Размер потока : 295 Мбайт (20%)
Заголовок : Лицензия
Язык : Russian
Default : Да
Forced : Да
Текст #1
Идентификатор : 3
Формат : UTF-8
Идентификатор кодека : S_TEXT/UTF8
Идентификатор кодека/Информация : UTF-8 Plain Text
Заголовок : Forced
Язык : Russian
Default : Нет
Forced : Нет
Текст #2
Идентификатор : 4
Формат : UTF-8
Идентификатор кодека : S_TEXT/UTF8
Идентификатор кодека/Информация : UTF-8 Plain Text
Заголовок : Forced
Язык : Russian
Default : Да
Forced : Нет
Текст #3
Идентификатор : 5
Формат : UTF-8
Идентификатор кодека : S_TEXT/UTF8
Идентификатор кодека/Информация : UTF-8 Plain Text
Язык : Russian
Default : Нет
Forced : Нет
Текст #4
Идентификатор : 6
Формат : UTF-8
Идентификатор кодека : S_TEXT/UTF8
Идентификатор кодека/Информация : UTF-8 Plain Text
Заголовок : Forced
Язык : Ukrainian
Default : Нет
Forced : Нет
Текст #5
Идентификатор : 7
Формат : UTF-8
Идентификатор кодека : S_TEXT/UTF8
Идентификатор кодека/Информация : UTF-8 Plain Text
Язык : Ukrainian
Default : Нет
Forced : Нет
Текст #6
Идентификатор : 8
Формат : UTF-8
Идентификатор кодека : S_TEXT/UTF8
Идентификатор кодека/Информация : UTF-8 Plain Text
Заголовок : Forced
Язык : English
Default : Нет
Forced : Нет
Текст #7
Идентификатор : 9
Формат : UTF-8
Идентификатор кодека : S_TEXT/UTF8
Идентификатор кодека/Информация : UTF-8 Plain Text
Заголовок : Full
Язык : English
Default : Нет
Forced : Нет
Текст #8
Идентификатор : 10
Формат : UTF-8
Идентификатор кодека : S_TEXT/UTF8
Идентификатор кодека/Информация : UTF-8 Plain Text
Заголовок : SDH
Язык : English
Default : Нет
Forced : Нет
Меню
00:00:00.000 : en:Chapter 01
00:05:35.209 : en:Chapter 03
00:08:09.322 : en:Chapter 05
00:12:31.041 : en:Chapter 07
00:16:40.332 : en:Chapter 09
00:20:11.084 : en:Chapter 11
00:22:45.447 : en:Chapter 13
00:24:56.870 : en:Chapter 15
00:27:57.217 : en:Chapter 17
00:30:30.828 : en:Chapter 19
00:35:27.750 : en:Chapter 21
00:39:55.059 : en:Chapter 23
00:42:55.531 : en:Chapter 25
00:45:58.505 : en:Chapter 27
00:49:43.480 : en:Chapter 29
00:55:16.563 : en:Chapter 31
00:58:13.489 : en:Chapter 33
01:01:46.244 : en:Chapter 35
01:04:39.000 : en:Chapter 37
01:09:26.662 : en:Chapter 39
01:13:25.859 : en:Chapter 41
01:16:30.877 : en:Chapter 43
01:21:39.811 : en:Chapter 45
01:25:03.932 : en:Chapter 47
01:31:59.930 : en:Chapter 48

Скриншоты



Rip by: Vovan366
[Профиль] [ЛС]
Кто просматривает тему:

Форум Тема Автор Размер
Зарубежные мультфильмы Элвин и бурундуки: Грандиозное бурундуключение / Alvin and the Chipmunks: The Road Chip (2015) BDRemux 1080p | D | iTunes достали все 22.55 GB
Зарубежные мультфильмы Элвин и бурундуки: Грандиозное бурундуключение / Alvin and the Chipmunks: The Road Chip (2015) BDRemux 1080p | Лицензия Russian Mafia 21.42 GB
Зарубежные мультфильмы Элвин и бурундуки: Грандиозное бурундуключение / Alvin and the Chipmunks: The Road Chip (2015) BDRip 1080p | Лицензия BOSS 10.42 GB
Зарубежные мультфильмы Элвин и бурундуки: Грандиозное бурундуключение / Alvin and the Chipmunks: The Road Chip (2015) BDRip 720p | Лицензия BOSS 5.6 GB
Зарубежные мультфильмы Элвин и бурундуки: Грандиозное бурундуключение / Alvin and the Chipmunks: The Road Chip (2015) BDRip | D | Лицензия BOSS 1.46 GB
Зарубежные мультфильмы Элвин и бурундуки: Грандиозное бурундуключение / Alvin and the Chipmunks: The Road Chip (2015) DVD5 BOSS 4.36 GB
Зарубежные мультфильмы Элвин и бурундуки: Грандиозное бурундуключение / Alvin and the Chipmunks: The Road Chip (Уолт Бекер) [2015 г., мультфильм, фэнтези, комедия, приключения, семейный, музыка, BDRip 1080p] DUB (iTunes) BOSS 7.89 GB
Зарубежные мультфильмы Элвин и бурундуки: Грандиозное бурундуключение / Alvin and the Chipmunks: The Road Chip (Уолт Бекер) [2015 г., мультфильм, фэнтези, комедия, приключения, семейный, музыка, BDRip 1080p] DUB (Чис... BOSS 7.76 GB
Показать сообщения:    

Текущее время: Сегодня 10:32

Часовой пояс: GMT



Вы не можете начинать темы
Вы не можете отвечать на сообщения
Вы не можете редактировать свои сообщения
Вы не можете удалять свои сообщения
Вы не можете голосовать в опросах
Вы не можете прикреплять файлы к сообщениям
Вы не можете скачивать файлы