Элвин и бурундуки: Грандиозное бурундуключение / Alvin and the Chipmunks: The Road Chip (2015) BDRip 1080p | Лицензия

 
Автор Сообщение

BOSS ®

Пол:

Стаж: 2 года 1 месяц

Сообщений: 3748

Откуда: ODESSA



Награды: 20 (Подробнее)

За внесенный вклад в развитие сайта (Количество: 1) Top Keeper 2 (Количество: 1) Mega Releaser 1 (Количество: 1)
Торрент-статистика

Создавать темы 02-Апр-2016 08:04

[Цитировать]

Название: Элвин и бурундуки: Грандиозное бурундуключение
Оригинальное название: Alvin and the Chipmunks: The Road Chip
Год выпуска: 2015
Жанр: Мультфильм, фэнтези, комедия, приключения, семейный, музыка
Выпущено: США, Bagdasarian Productions, Fox 2000 Pictures, Regency Enterprises, Sunswept Entertainment, TSG Entertainment
Режиссер: Уолт Бекер
В ролях: Джейсон Ли, Джастин Лонг, Мэттью Грей Гублер, Джесси МакКартни, Кимберли Уильямс, Джош Грин, Тони Хейл, Белла Торн, Эдди Стиплз, Кристина Эпплгейт, Кейли Куоко-Суитинг, Анна Фэрис, Кит А. Болден, Джошуа Микель, Джереми Рэй Тейлор, Майкл Сеньор, Зико Заки, Дженнифер Кулидж, Узо Адуба, Джесика Альберг
О фильме: Бурундуки пойдут на всё, чтобы сохранить свою семью, даже на грандиозное бурундуключение по всей Америке! Когда Бурундуки видят, что Дэйв берет с собой коробочку с кольцом в поездку в Майами, они отчаянно пытаются помешать ему сделать предложение его девушке — из опасения, что мачеха и сводный брат внесут перемены в их семейную идиллию. Но после того, как их помещают в черный список за хулиганское поведение в самолете, Элвин, Саймон, Теодор и их будущий брат Майлз отправляются в самое важное путешествие в их жизни через всю страну, чтобы успеть помешать помолвке.

Качество: BDRip 1080p
Видео: MPEG-4 AVC, 13.5 Mбит/с, 1920x1040
Аудио# 1: DTS, 48 kHz, 6 ch, ~768.00 kbps avg | русский | Профессиональный (полное дублирование)[BD EUR]
Аудио# 2: AC3, 48 kHz, 6 ch, ~448.00 kbps avg | украинский | Профессиональный (полное дублирование)[BD EUR]
Аудио# 3: DTS, 48 kHz, 6 ch, ~1509.00 kbps avg | английский | Оригинал
Продолжительность: 01:32:00
Перевод: Дублированный
Субтитры: Русские, английские, украинские
Семпл

Скриншоты

MediaInfo

Общее
Уникальный идентификатор : 235561920269117845060942184386556508775 (0xB137935A8BA85D65A665A6FA982EBA67)
Полное имя : Alvin and the Chipmunks The Road Chip.2015.1080p.Blu Ray.mkv
Формат : Matroska
Версия формата : Version 4 / Version 2
Размер файла : 10,4 Гбайт
Продолжительность : 1 ч. 32 м.
Общий поток : 16,2 Мбит/сек
Название фильма : Alvin and the Chipmunks The Road Chip.2015.1080p.Blu Ray
Дата кодирования : UTC 2016-04-02 04:39:17
Программа кодирования : mkvmerge v8.3.0 ('Over the Horizon') 64bit
Библиотека кодирования : libebml v1.3.1 + libmatroska v1.4.2
Видео
Идентификатор : 1
Формат : AVC
Формат/Информация : Advanced Video Codec
Профиль формата : High@L4.1
Параметр CABAC формата : Да
Параметр ReFrames формата : 4 кадра
Идентификатор кодека : V_MPEG4/ISO/AVC
Продолжительность : 1 ч. 32 м.
Битрейт : 13,5 Мбит/сек
Ширина : 1920 пикселей
Высота : 1040 пикселей
Соотношение сторон : 1,85:1
Режим частоты кадров : Постоянный
Частота кадров : 23,976 (24000/1001) кадра/сек
Цветовое пространство : YUV
Субдискретизация насыщенности : 4:2:0
Битовая глубина : 8 бит
Тип развёртки : Прогрессивная
Бит/(Пиксели*Кадры) : 0.282
Размер потока : 8,67 Гбайт (83%)
Заголовок : Alvin and the Chipmunks The Road Chip.2015.1080p.Blu Ray
Библиотека кодирования : x264 core 146 r2538 121396c
Настройки программы : cabac=1 / ref=4 / deblock=1:-3:-3 / analyse=0x3:0x133 / me=umh / subme=11 / psy=1 / psy_rd=1.00:0.00 / mixed_ref=1 / me_range=32 / chroma_me=1 / trellis=2 / 8x8dct=1 / cqm=0 / deadzone=21,11 / fast_pskip=0 / chroma_qp_offset=-2 / threads=48 / lookahead_threads=8 / sliced_threads=0 / nr=0 / decimate=0 / interlaced=0 / bluray_compat=0 / constrained_intra=0 / bframes=12 / b_pyramid=2 / b_adapt=2 / b_bias=0 / direct=3 / weightb=1 / open_gop=0 / weightp=2 / keyint=240 / keyint_min=23 / scenecut=40 / intra_refresh=0 / rc_lookahead=150 / rc=crf / mbtree=0 / crf=16.0 / qcomp=0.60 / qpmin=0 / qpmax=69 / qpstep=4 / vbv_maxrate=62500 / vbv_bufsize=78125 / crf_max=0.0 / nal_hrd=none / filler=0 / ip_ratio=1.40 / pb_ratio=1.30 / aq=1:0.80
Язык : English
Default : Да
Forced : Нет
Аудио #1
Идентификатор : 2
Формат : DTS
Формат/Информация : Digital Theater Systems
Режим : 16
Параметр Endianness формата : Big
Идентификатор кодека : A_DTS
Продолжительность : 1 ч. 32 м.
Вид битрейта : Постоянный
Битрейт : 768 Кбит/сек
Каналы : 6 каналов
Расположение каналов : Front: L C R, Side: L R, LFE
Частота : 48,0 КГц
Частота кадров : 93,750 кадра/сек (512 spf)
Битовая глубина : 24 бит
Метод сжатия : С потерями
Размер потока : 505 Мбайт (5%)
Заголовок : Dub | DTS 5.1 @ 768 kbps BD EUR
Язык : Russian
Default : Да
Forced : Нет
Аудио #2
Идентификатор : 3
Формат : AC-3
Формат/Информация : Audio Coding 3
Расширение режима : CM (complete main)
Параметр Endianness формата : Big
Идентификатор кодека : A_AC3
Продолжительность : 1 ч. 32 м.
Вид битрейта : Постоянный
Битрейт : 448 Кбит/сек
Каналы : 6 каналов
Расположение каналов : Front: L C R, Side: L R, LFE
Частота : 48,0 КГц
Частота кадров : 31,250 кадров/сек (1536 spf)
Метод сжатия : С потерями
Размер потока : 295 Мбайт (3%)
Заголовок : Dub | DD 5.1 @ 448 kbps - BD EUR
Язык : Ukrainian
Default : Нет
Forced : Нет
Аудио #3
Идентификатор : 4
Формат : DTS
Формат/Информация : Digital Theater Systems
Профиль формата : ES Matrix / Core
Режим : 16
Параметр Endianness формата : Big
Идентификатор кодека : A_DTS
Продолжительность : 1 ч. 32 м.
Вид битрейта : Постоянный
Битрейт : 1509 Кбит/сек
Каналы : 7 каналов / 6 каналов
Расположение каналов : Front: L C R, Side: L R, Back: C, LFE / Front: L C R, Side: L R, LFE
Частота : 48,0 КГц
Частота кадров : 93,750 кадра/сек (512 spf)
Битовая глубина : 24 бит
Метод сжатия : С потерями
Размер потока : 993 Мбайт (9%)
Заголовок : Original
Язык : English
Default : Нет
Forced : Нет
Текст #1
Идентификатор : 5
Формат : UTF-8
Идентификатор кодека : S_TEXT/UTF8
Идентификатор кодека/Информация : UTF-8 Plain Text
Продолжительность : 18 м.
Битрейт : 3 бит/сек
Count of elements : 6
Размер потока : 520 байт (0%)
Заголовок : Forced
Язык : Russian
Default : Да
Forced : Нет
Текст #2
Идентификатор : 6
Формат : UTF-8
Идентификатор кодека : S_TEXT/UTF8
Идентификатор кодека/Информация : UTF-8 Plain Text
Продолжительность : 1 ч. 31 м.
Битрейт : 116 бит/сек
Count of elements : 1606
Размер потока : 78,0 Кбайт (0%)
Заголовок : Full
Язык : Russian
Default : Нет
Forced : Нет
Текст #3
Идентификатор : 7
Формат : UTF-8
Идентификатор кодека : S_TEXT/UTF8
Идентификатор кодека/Информация : UTF-8 Plain Text
Продолжительность : 1 ч. 31 м.
Битрейт : 119 бит/сек
Count of elements : 1627
Размер потока : 80,1 Кбайт (0%)
Язык : Ukrainian
Default : Нет
Forced : Нет
Текст #4
Идентификатор : 8
Формат : UTF-8
Идентификатор кодека : S_TEXT/UTF8
Идентификатор кодека/Информация : UTF-8 Plain Text
Продолжительность : 1 ч. 5 м.
Битрейт : 0 бит/сек
Count of elements : 5
Размер потока : 231 байт (0%)
Заголовок : FORCED
Язык : English
Default : Нет
Forced : Нет
Текст #5
Идентификатор : 9
Формат : UTF-8
Идентификатор кодека : S_TEXT/UTF8
Идентификатор кодека/Информация : UTF-8 Plain Text
Продолжительность : 1 ч. 31 м.
Битрейт : 90 бит/сек
Count of elements : 2183
Размер потока : 60,4 Кбайт (0%)
Язык : English
Default : Нет
Forced : Нет
Текст #6
Идентификатор : 10
Формат : UTF-8
Идентификатор кодека : S_TEXT/UTF8
Идентификатор кодека/Информация : UTF-8 Plain Text
Продолжительность : 1 ч. 31 м.
Битрейт : 96 бит/сек
Count of elements : 2308
Размер потока : 64,2 Кбайт (0%)
Заголовок : SDH
Язык : English
Default : Нет
Forced : Нет
Меню
00:00:00.000 : en:00:00:00.000
00:05:35.210 : en:00:05:35.210
00:08:09.322 : en:00:08:09.322
00:12:31.042 : en:00:12:31.042
00:16:40.333 : en:00:16:40.333
00:20:11.085 : en:00:20:11.085
00:22:45.447 : en:00:22:45.447
00:24:56.870 : en:00:24:56.870
00:27:57.217 : en:00:27:57.217
00:30:30.829 : en:00:30:30.829
00:35:27.751 : en:00:35:27.751
00:39:55.059 : en:00:39:55.059
00:42:55.531 : en:00:42:55.531
00:45:58.506 : en:00:45:58.506
00:49:43.480 : en:00:49:43.480
00:55:16.563 : en:00:55:16.563
00:58:13.490 : en:00:58:13.490
01:01:46.244 : en:01:01:46.244
01:04:39.000 : en:01:04:39.000
01:09:26.662 : en:01:09:26.662
01:13:25.860 : en:01:13:25.860
01:16:30.878 : en:01:16:30.878
01:21:39.811 : en:01:21:39.811
01:25:03.932 : en:01:25:03.932
[Профиль] [ЛС]
Кто просматривает тему:

Форум Тема Автор Размер
Зарубежные мультфильмы Элвин и бурундуки: Грандиозное бурундуключение / Alvin and the Chipmunks: The Road Chip (2015) BDRemux 1080p | D | iTunes достали все 22.55 GB
Зарубежные мультфильмы Элвин и бурундуки: Грандиозное бурундуключение / Alvin and the Chipmunks: The Road Chip (2015) BDRemux 1080p | Лицензия Russian Mafia 21.42 GB
Зарубежные мультфильмы Элвин и бурундуки: Грандиозное бурундуключение / Alvin and the Chipmunks: The Road Chip (2015) BDRip 720p | Лицензия BOSS 5.6 GB
Зарубежные мультфильмы Элвин и бурундуки: Грандиозное бурундуключение / Alvin and the Chipmunks: The Road Chip (2015) BDRip | D | Лицензия BOSS 1.46 GB
Зарубежные мультфильмы Элвин и бурундуки: Грандиозное бурундуключение / Alvin and the Chipmunks: The Road Chip (2015) BDRip-AVC | Лицензия достали все 1.46 GB
Зарубежные мультфильмы Элвин и бурундуки: Грандиозное бурундуключение / Alvin and the Chipmunks: The Road Chip (2015) DVD5 BOSS 4.36 GB
Зарубежные мультфильмы Элвин и бурундуки: Грандиозное бурундуключение / Alvin and the Chipmunks: The Road Chip (Уолт Бекер) [2015 г., мультфильм, фэнтези, комедия, приключения, семейный, музыка, BDRip 1080p] DUB (iTunes) BOSS 7.89 GB
Зарубежные мультфильмы Элвин и бурундуки: Грандиозное бурундуключение / Alvin and the Chipmunks: The Road Chip (Уолт Бекер) [2015 г., мультфильм, фэнтези, комедия, приключения, семейный, музыка, BDRip 1080p] DUB (Чис... BOSS 7.76 GB
Показать сообщения:    

Текущее время: Сегодня 01:29

Часовой пояс: GMT



Вы не можете начинать темы
Вы не можете отвечать на сообщения
Вы не можете редактировать свои сообщения
Вы не можете удалять свои сообщения
Вы не можете голосовать в опросах
Вы не можете прикреплять файлы к сообщениям
Вы не можете скачивать файлы