Экс-любовник / Fast Track (Джесси Перетц / Jesse Peretz) [2006, США, романтическая комедия, HDTVRip] DUB + Original (eng) + Sub (rus)

 
Автор Сообщение

painkiller ®

Стаж: 2 года 3 месяца

Сообщений: 582



Награды: Нет

Торрент-статистика

Создавать темы 15-Авг-2014 10:16

[Цитировать]

Экс-любовник / Fast Track
Страна: США
Жанр: романтическая комедия
Год выпуска: 2006
Продолжительность: 01:27:42
Аудио 1: Перевод - профессиональный (дублированный)
Аудио 2: Оригинальная аудиодорожка, английский
Cубтитры: русские
Режиссер: Джесси Перетц / Jesse Peretz
В ролях: Зак Брафф, Аманда Пит, Джейсон Бейтман, Чарльз Гродин, Миа Фэрроу, Люсиан Майсел, Донал Лог, Эми Полер, Фред Армизен, Роберт Дж. Стефенсон
Описание: Том Рейли никогда не заботился о карьере. А зачем? Его обожаемая жена София всегда была рада работать за троих. Но рождение ребенка заставляет бизнес-леди усесться дома, а хроническому бездельнику, скрепя сердце, пойти на работу к собственному тестю, у которого ко всему прочему работает и бывший любовник жены. Назревает скандал…
Доп. информация:

Качество видео: HDTVRip
Формат видео: AVI
Видео: MPEG-4 XviD 65, 720х384, соотношение сторон 1,875, 25,000 кадра/сек, 2171 Кбит/сек, 0.314 Бит/(Пиксели*Кадры)
Аудио 1: AC-3, 48,0 КГц, 192 Кбит/сек постоянный, 2 канала (Стерео) - DUB, профессиональный, русский (в контейнере)
Аудио 2: AC-3, 48,0 КГц, 192 Кбит/сек постоянный, 2 канала (Стерео) - оригинальный, английский (отдельно)
Субтитры: русские (srt)(softsub; отдельно)
Размер без оригинальной озвучки: 1,45 Гб

MediaInfo

Общее
Полное имя : D:\Ripp\36 _Экс любовник\HDTVRip 4.22\R145\Экс любовник 145\eks_lubovnik_145_mx.avi
Формат : AVI
Формат/Информация : Audio Video Interleave
Размер файла : 1,45 Гбайт
Продолжительность : 1 ч. 27 м.
Общий поток : 2373 Кбит/сек
Программа кодирования : VirtualDubMod 1.5.10.2 (build 2540/release)
Библиотека кодирования : VirtualDubMod build 2540/release
Видео
Идентификатор : 0
Формат : MPEG-4 Visual
Профиль формата : Advanced Simple@L5
Параметр BVOP формата : 1
Параметр QPel формата : Нет
Параметр GMC формата : Без точки перехода
Параметр матрицы формата : Default (MPEG)
Идентификатор кодека : XVID
Идентификатор кодека/Подсказка : XviD
Продолжительность : 1 ч. 27 м.
Битрейт : 2171 Кбит/сек
Ширина : 720 пикселей
Высота : 384 пикселя
Соотношение сторон : 1,875
Частота кадров : 25,000 кадров/сек
Цветовое пространство : YUV
Субдискретизация насыщенности : 4:2:0
Битовая глубина : 8 бит
Тип развёртки : Прогрессивная
Метод сжатия : С потерями
Бит/(Пиксели*Кадры) : 0.314
Размер потока : 1,33 Гбайт (92%)
Библиотека кодирования : XviD 65
Аудио
Идентификатор : 1
Формат : AC-3
Формат/Информация : Audio Coding 3
Расширение режима : CM (complete main)
Идентификатор кодека : 2000
Продолжительность : 1 ч. 27 м.
Вид битрейта : Постоянный
Битрейт : 192 Кбит/сек
Каналы : 2 канала
Расположение каналов : Front: L R
Частота : 48,0 КГц
Битовая глубина : 16 бит
Метод сжатия : С потерями
Размер потока : 120 Мбайт (8%)
Выравнивание : Разделение по промежуткам
Продолжительность промежутка : 40 мс. (1,00 видеокадр)
Время предзагрузки промежутка : 500 мс.
Заголовок : Russian, Dub, AC-3, 2 ch. stereo, 192kbps
Общее
Полное имя : D:\Ripp\36 _Экс любовник\HDTVRip 4.22\R145\Экс любовник 145\eks_lubovnik_145_mx.eng.ac3
Формат : AC-3
Формат/Информация : Audio Coding 3
Размер файла : 140 Мбайт
Продолжительность : 1 ч. 27 м.
Режим общего битрейта : Постоянный
Общий поток : 224 Кбит/сек
Аудио
Формат : AC-3
Формат/Информация : Audio Coding 3
Расширение режима : CM (complete main)
Продолжительность : 1 ч. 27 м.
Вид битрейта : Постоянный
Битрейт : 224 Кбит/сек
Каналы : 2 канала
Расположение каналов : Front: L R
Частота : 48,0 КГц
Битовая глубина : 16 бит
Метод сжатия : С потерями
Размер потока : 140 Мбайт (100%)

Скриншоты

Внимание! Брак!

Сожалею, но на 00:58:44-00:58:46 брак источника (
--
[Профиль] [ЛС]

Создавать темы 06-Авг-2015 23:11 (спустя 11 месяцев 22 дня)

Топик был перенесен из форума Фильмы до 2014 года в форум Фильмы до 2012 года
sergej644
 
Кто просматривает тему:

Показать сообщения:    

Текущее время: Сегодня 08:45

Часовой пояс: GMT



Вы не можете начинать темы
Вы не можете отвечать на сообщения
Вы не можете редактировать свои сообщения
Вы не можете удалять свои сообщения
Вы не можете голосовать в опросах
Вы не можете прикреплять файлы к сообщениям
Вы не можете скачивать файлы